IsoTek - High Resolution Full System Enhancer: 2nd Edition - 2015 (tracks + .cue) WAV

Reply to topic
DL-List and Torrent activity
Size:  800 MB   |    Registered:  3 years 1 month   |    Completed:  1 time
Seeders:  708  [  0 KB/s  ]   Leechers:  24  [  0 KB/s  ]   Show peers in full details
 
   
 
 
Author Message

Sound Forge ®

Gender:

Longevity: 6 years 5 months

Posts: 21693

Post 03-Aug-2018 12:10

[Quote]

IsoTek - High Resolution Full System Enhancer: 2nd Edition Производитель: UK
Кат. номер: CR-HR-FSE-CD/412
Сайт производителя: http://www.isoteksystems.com/products/essentials/full-system-enhancer
Год выпуска: 2015
Продолжительность 1:07:55
Тип рипа: tracks + .cue
Аудио кодек: WAV
Аудио: 2.0 stereo 44.1 kHz + 48 kHz
Описание:
OVERVIEW
Full System Enhancer
A variety of tracks featuring specially developed algorithms, which create a unique set of signals to reduce burn-in time and ‘run-in’ equipment. The disc can also demagnetise audio and audio-visual components.
Perfect burn-in disc for all new components.
Full system demagnetization.
Simple, cost effective solution, which is considered an industry standard.
The Full System Enhancer CD is an intensive ‘workout’ for your audio system. The disc includes specially developed signals to help ‘run-in’ new equipment, as well as demagnetising existing hi-fi components and rejuvenating your entire system.
It is important to exercise an audio system across the full range of frequencies and amplitudes it may encounter in real life, and to this end the tones on this disc have been devised to cover the complete audio band from top to bottom, also ensuring that, for instance, high-amplitude signals are combined with high-speed ones.
In electronic terms, the required signals feature lots of high-speed activity coupled to some high-amplitude excursions. All of these signals have been produced according to strict mathematical criteria, so as to place the greatest stress on the important parts of a system – without, it is important to note, endangering any part of it.
Track 1: Full System Burn-In Demag (30 Minutes, can be played on repeat)
Track 2: Weekly Enhance and Demag (5 Minutes)
Track 3: (15 Mintues) requires the Blue Horizon RIAA Phono Burn-In box, not included. DO NOT connect your CD player directly to your phono stage, a suitable RIAA filter must be used.
Track 4: Music Server Hi-Res Burn-In Demag (17.5 Minutes data track) Requires a computer. Designed for music server based audio.
IsoTek High Resolution Full System Enhancer, 2nd Edition
Perfect burn-in disc for all new components
Phono Stage Burn-In Demag - This requires the Blue Horizon RIAA Phono Burn-In box, not included. DO NOT connect your CD player directly to your phono stage, a suitable RIAA filter must be used
Full system demagnetization
Simple, cost effective solution, which is considered an industry standard.

EAC

Exact Audio Copy V1.3 from 2. September 2016
EAC extraction logfile from 10. April 2017, 23:40
IsoTek / High Resolution Full System Enhancer. 2nd Edition (CR-HR-FSE-CD_412)
Used drive : MATSHITADVD+-RW UJ8DB Adapter: 1 ID: 0
Read mode : Secure
Utilize accurate stream : Yes
Defeat audio cache : Yes
Make use of C2 pointers : No
Read offset correction : 6
Overread into Lead-In and Lead-Out : No
Fill up missing offset samples with silence : Yes
Delete leading and trailing silent blocks : No
Null samples used in CRC calculations : Yes
Used interface : Native Win32 interface for Win NT & 2000
Gap handling : Appended to previous track
Used output format : Internal WAV Routines
Sample format : 44.100 Hz; 16 Bit; Stereo
TOC of the extracted CD
Track | Start | Length | Start sector | End sector
---------------------------------------------------------
1 | 0:00.00 | 30:02.11 | 0 | 135160
2 | 30:02.11 | 5:01.74 | 135161 | 157809
3 | 35:04.10 | 15:00.00 | 157810 | 225309
4 | 52:36.10 | 27:05.39 | 236710 | 358623
Track 1
Filename C:\Misantrop\IsoTek - High Resolution Full System Enhancer. 2nd Edition (2015, CR-HR-FSE-CD_412)\01 Full System Burn-In Demag.wav
Pre-gap length 0:00:02.00
Peak level 100.0 %
Extraction speed 1.9 X
Track quality 100.0 %
Test CRC 80F857B7
Copy CRC 80F857B7
Accurately ripped (confidence 10) [F41E6C81] (AR v2)
Copy OK
Track 2
Filename C:\Misantrop\IsoTek - High Resolution Full System Enhancer. 2nd Edition (2015, CR-HR-FSE-CD_412)\02 Weekly Enhance and Demag.wav
Pre-gap length 0:00:02.00
Peak level 99.2 %
Extraction speed 2.2 X
Track quality 100.0 %
Test CRC 0C9AA734
Copy CRC 0C9AA734
Accurately ripped (confidence 10) [0786E8E0] (AR v2)
Copy OK
Track 3
Filename C:\Misantrop\IsoTek - High Resolution Full System Enhancer. 2nd Edition (2015, CR-HR-FSE-CD_412)\03 Phono Stage Burn-In Demag.wav
Pre-gap length 0:00:02.00
Peak level 99.2 %
Extraction speed 2.6 X
Track quality 100.0 %
Test CRC B0618175
Copy CRC B0618175
Accurately ripped (confidence 8) [3D8317B1] (AR v2)
Copy OK
All tracks accurately ripped
No errors occurred
End of status report
---- CUETools DB Plugin V2.1.6
[CTDB TOCID: 4mSyCqAegF4YbLWUdqipBV95SME-] found
Submit result: 4mSyCqAegF4YbLWUdqipBV95SME- has been confirmed
Track | CTDB Status
1 | (13/13) Accurately ripped
2 | (13/13) Accurately ripped
3 | (13/13) Accurately ripped
==== Log checksum 41736093EAD8F3EC41228E5895C4AA37433B522062838E2CF3E809442F6ACDA1 ====

cue sheet

REM GENRE burn-in
REM DATE 2015
REM DISCID 2912AD04
REM COMMENT "ExactAudioCopy v1.3"
PERFORMER "IsoTek"
TITLE "High Resolution Full System Enhancer. 2nd Edition (CR-HR-FSE-CD_412)"
REM COMPOSER ""
FILE "01 Full System Burn-In Demag.wav" WAVE
TRACK 01 AUDIO
TITLE "Full System Burn-In Demag"
PERFORMER "IsoTek"
REM COMPOSER ""
FLAGS DCP
INDEX 01 00:00:00
TRACK 02 AUDIO
TITLE "Weekly Enhance and Demag"
PERFORMER "IsoTek"
REM COMPOSER ""
FLAGS DCP
INDEX 00 30:00:11
FILE "02 Weekly Enhance and Demag.wav" WAVE
INDEX 01 00:00:00
TRACK 03 AUDIO
TITLE "Phono Stage Burn-In Demag"
PERFORMER "IsoTek"
REM COMPOSER ""
FLAGS DCP
INDEX 00 04:59:74
FILE "03 Phono Stage Burn-In Demag.wav" WAVE
INDEX 01 00:00:00
TRACK 04 MODEx/2xxx
TITLE "Track04"
PERFORMER "IsoTek"
REM COMPOSER ""
INDEX 00 15:00:00

Скриншот

Первая версия:
[only-soft.org].t85993.torrent
Torrent: Registered   [ 2018-08-03 12:10 ]

17 KB

Status: checked
Completed: 1 times
Size: 800 MB
Rate: 
(Vote: 0)
Have thanked: 6  Thanks   (List)
IsoTek - High Resolution Full System Enhancer: 2nd Edition - 2015 (tracks + .cue) WAV скачать торрент бесплатно и без регистрации
[Profile] [PM]

vidard2k

Longevity: 1 year 6 months

Posts: 2

Post 21-Feb-2020 13:08 (after 1 year 6 months)

[Quote]

Re-seed please???
[Profile] [PM]

vidard2k

Longevity: 1 year 6 months

Posts: 2

Post 26-Mar-2020 12:35 (after 1 month 4 days)

[Quote]

Ресеед пожалуйста?
[Profile] [PM]
Forum Topic Author Size
Тестовые диски для настройки аудио/видео аппаратуры (Burn-in) IsoTek - High Resolution Full System Enhancer: 2nd Edition - 2015, FLAC, tracks+cue, lossless Sound Forge 604 MB
Display posts from previous:    
Reply to topic

The time now is: Today 14:59

All times are GMT + 4 Hours



You cannot post new topics in this forum
You cannot reply to topics in this forum
You cannot edit your posts in this forum
You cannot delete your posts in this forum
You cannot vote in polls in this forum
You cannot attach files in this forum
You can download files in this forum