Ближе к Реальности: Создание игры «Одни из Нас» / Grounded: Making of The Last of Us (2013) WEB-DLRip [720p] BOPOH1984

Reply to topic
DL-List and Torrent activity
Size:  1.99 GB   |    Registered:  6 years 5 months   |    Completed:  2 times
Seeders:  813  [  0 KB/s  ]   Leechers:  14  [  0 KB/s  ]   Show peers in full details
 
   
 
 
Author Message

Программист ®

Gender:

Longevity: 6 years 7 months

Posts: 9096

Post 24-Mar-2014 18:06

[Quote]

-Ближе к Реальности: Создание игры «Одни из Нас» / Grounded: Making of The Last of Us (2013) WEB-DLRip [720p] BOPOH1984- Год выпуска: 2013
Жанр: Документальный
Актеры: Трой Бэйкер, Густаво Сантаолалья, Брюс Страли, Эван Уеллс

Продолжительность: 01:24:
Качество видео: WEB-DLRip [720p]
Перевод: Одноголосый закадровый
Автор перевода: BOPOH1984 aka Alex Derek
Видеокодек: MPEG-4 AVC/H.264
Битрейт видео: ~2500 Kbps
Размер кадра: 1280x720
Аудио:
№1: MP3, 2 ch, 320 kbps, 48 kHz - Русская (присутствует ненормативная лексика)
№2: MP3, 2 ch, 320 kbps, 48 kHz - Русская (с цензурой)
№3: MP3, 2 ch, 192 kbps, 44 kHz - Английска
Описание:
Данное видео представляет собой фильм о создании игры приобретаемый с покупкой Season Pass в PSN.Скриншоты:

Mediainfo:

Общее
Полное имя : D:\Фильмы\Grounded Making of The Last of Us\Grounded - Making of The Last of Us (BOPOH1984).avi
Формат : AVI
Формат/Информация : Audio Video Interleave
Размер файла : 1,99 Гбайт
Продолжительность : 1 ч. 24 м.
Общий поток : 3350 Кбит/сек
Программа кодирования : VirtualDubModRus 1.5.10.2 (build 2540/release)
Библиотека кодирования : VirtualDubMod build 2540/release
Видео
Идентификатор : 0
Формат : AVC
Формат/Информация : Advanced Video Codec
Профиль формата : [url=mailto:[email protected]][email protected][/url]
Параметр CABAC формата : Да
Параметр ReFrames формата : 8 кадров
Идентификатор кодека : h264
Продолжительность : 1 ч. 24 м.
Битрейт : 2500 Кбит/сек
Ширина : 1280 пикселей
Высота : 720 пикселей
Соотношение сторон : 16:9
Частота кадров : 23,976 кадра/сек
Цветовое пространство : YUV
Субдискретизация насыщенности : 4:2:0
Битовая глубина : 8 бит
Тип развёртки : Прогрессивная
Бит/(Пиксели*Кадры) : 0.113
Размер потока : 1,48 Гбайт (75%)
Библиотека кодирования : x264 core 79 r1342kMod e8501ef
Настройки программы : cabac=1 / ref=8 / deblock=1:0:0 / analyse=0x3:0x133 / me=umh / subme=9 / psy=1 / psy_rd=1.0:0.0 / mixed_ref=1 / me_range=16 / chroma_me=1 / trellis=2 / 8x8dct=1 / cqm=0 / deadzone=21,11 / chroma_qp_offset=-2 / threads=12 / nr=0 / decimate=1 / mbaff=0 / constrained_intra=0 / bframes=3 / b_pyramid=0 / b_adapt=2 / b_bias=0 / direct=3 / wpredb=1 / wpredp=2 / keyint=250 / keyint_min=25 / scenecut=40 / rc_lookahead=40 / rc=2pass / mbtree=1 / bitrate=2500 / ratetol=1.0 / qcomp=0.60 / qpmin=10 / qpmax=51 / qpstep=4 / cplxblur=20.0 / qblur=0.5 / ip_ratio=1.40 / aq=1:1.00
Аудио #1
Идентификатор : 1
Формат : MPEG Audio
Версия формата : Version 1
Профиль формата : Layer 3
Режим : Joint stereo
Идентификатор кодека : 55
Идентификатор кодека/Подсказка : MP3
Продолжительность : 1 ч. 24 м.
Вид битрейта : Постоянный
Битрейт : 320 Кбит/сек
Каналы : 2 канала
Частота : 48,0 КГц
Метод сжатия : С потерями
Размер потока : 194 Мбайт (10%)
Выравнивание : Соединение по промежуткам
Продолжительность промежутка : 42 мс. (1,00 видеокадр)
Время предзагрузки промежутка : 504 мс.
Аудио #2
Идентификатор : 2
Формат : MPEG Audio
Версия формата : Version 1
Профиль формата : Layer 3
Режим : Joint stereo
Идентификатор кодека : 55
Идентификатор кодека/Подсказка : MP3
Продолжительность : 1 ч. 24 м.
Вид битрейта : Постоянный
Битрейт : 320 Кбит/сек
Каналы : 2 канала
Частота : 48,0 КГц
Метод сжатия : С потерями
Размер потока : 194 Мбайт (10%)
Выравнивание : Соединение по промежуткам
Продолжительность промежутка : 42 мс. (1,00 видеокадр)
Время предзагрузки промежутка : 504 мс.
Аудио #3
Идентификатор : 3
Формат : MPEG Audio
Версия формата : Version 1
Профиль формата : Layer 3
Идентификатор кодека : 55
Идентификатор кодека/Подсказка : MP3
Продолжительность : 1 ч. 24 м.
Вид битрейта : Постоянный
Битрейт : 192 Кбит/сек
Каналы : 2 канала
Частота : 44,1 КГц
Метод сжатия : С потерями
Размер потока : 117 Мбайт (6%)
Выравнивание : Разделение по промежуткам
Продолжительность промежутка : 42 мс. (1,00 видеокадр)
Время предзагрузки промежутка : 500 мс.
Библиотека кодирования : LAME3.98r
Настройки программы : -m s -V 4 -q 0 -lowpass 18.6 -b 192
[only-soft.org].t12926.torrent
Torrent: Registered   [ 2014-03-24 18:06 ]

21 KB

Status: checked
Completed: 2 times
Size: 1.99 GB
Rate: 
(Vote: 1)
Have thanked: 1  Thanks   (List)
Ближе к Реальности: Создание игры «Одни из Нас» / Grounded: Making of The Last of Us (2013) WEB-DLRip [720p] BOPOH1984 скачать торрент бесплатно и без регистрации
[Profile] [PM]
Forum Topic Author Size
Работа со звуком [MUZBIZNES] Ближе к Serum [2014, RUS] Sound Forge 2.65 GB
Display posts from previous:    
Reply to topic

The time now is: Today 16:29

All times are GMT + 4 Hours



You cannot post new topics in this forum
You cannot reply to topics in this forum
You cannot edit your posts in this forum
You cannot delete your posts in this forum
You cannot vote in polls in this forum
You cannot attach files in this forum
You can download files in this forum