Mobile Fidelity Sound Lab - Alan Parsons & Stephen Court - Sound Check -1993 (MFSL SPCD 15б, USA) (tracks + .cue) FLAC

Reply to topic
DL-List and Torrent activity
Size:  257 MB   |    Registered:  10 days   |    Completed:  1 time
Seeders:  517  [  0 KB/s  ]   Leechers:  12  [  0 KB/s  ]   Show peers in full details
 
   
 
 
Author Message

Sound Forge ®

Gender:

Longevity: 5 years 3 months

Posts: 17592

Post 30-Jun-2020 02:20

[Quote]

Alan Parsons & Stephen Court - Sound Check
Производитель: Mobile Fidelity Sound Lab
Сайт производителя: https://www.mofi.com/
Год выпуска: 1993
Язык: Английский
Тип рипа: image+.cue
Аудио кодек: FLAC
Аудио: 44.1 KHz /16 Bit / 2 channel
Описание: Это профессиональный аудио технический диск.
Предназначен для проверки аудиосистем на точность воспроизведения основных частот и чистоту звучания в целом.
Достаточно часто применяется на студиях и в концертных залах звукорежиссерами,
где требуется высокоточная регулировка аудио аппаратуры, но может быть легко использован для настройки и домашней техники класса Hi-Fi и Hi-End.
Кроме звуковых тестовых сигналов для проверки аудиосистем и снятия АЧХ (амплитудно-частотной характеристики),
на диске также имеются звуки различных инструментов, фрагменты музыкальных тем.
Доп. информация: В раздачу входят отсканированные страницы буклета с описанием тестов.
Детальная информация: https://www.discogs.com/Alan-Parsons-Stephen-Court-Sound-Check/release/3082207

Отчет качества EAC

Exact Audio Copy V1.5 from 20. February 2020
EAC extraction logfile from 1. June 2020, 12:24
Alan Parsons & Stephen Court / Sound Check
Used drive : PIONEER BD-RW BDR-203 Adapter: 1 ID: 0
Read mode : SecureUtilize accurate stream : YesDefeat audio cache : YesMake use of C2 pointers : No
Read offset correction : 667Overread into Lead-In and Lead-Out : NoFill up missing offset samples with silence : YesDelete leading and trailing silent blocks : NoNull samples used in CRC calculations : YesUsed interface : Native Win32 interface for Win NT & 2000
Used output format : User Defined EncoderSelected bitrate : 1024 kBit/sQuality : HighAdd ID3 tag : NoCommand line compressor : C:\Program Files (x86)\Exact Audio Copy\FLAC\FLAC.EXEAdditional command line options : -8 -V -T "ARTIST=%artist%" -T "TITLE=%title%" -T "ALBUM=%albumtitle%" -T "DATE=%year%" -T "TRACKNUMBER=%tracknr%" -T "GENRE=%genre%" -T "PERFORMER=%albuminterpret%" -T "COMPOSER=%composer%" %haslyrics%--tag-from-file=LYRICS="%lyricsfile%"%haslyrics% -T "ALBUMARTIST=%albumartist%" -T "DISCNUMBER=%cdnumber%" -T "TOTALDISCS=%totalcds%" -T "TOTALTRACKS=%numtracks%" -T "COMMENT=%comment%" %source% -o %dest%
TOC of the extracted CD
Track | Start | Length | Start sector | End sector --------------------------------------------------------- 1 | 0:00.00 | 0:35.72 | 0 | 2696 2 | 0:35.72 | 0:24.08 | 2697 | 4504 3 | 1:00.05 | 0:22.37 | 4505 | 6191 4 | 1:22.42 | 0:43.10 | 6192 | 9426 5 | 2:05.52 | 0:42.38 | 9427 | 12614 6 | 2:48.15 | 0:42.47 | 12615 | 15811 7 | 3:30.62 | 0:41.55 | 15812 | 18941 8 | 4:12.42 | 0:44.30 | 18942 | 22271 9 | 4:56.72 | 0:17.23 | 22272 | 23569 10 | 5:14.20 | 0:11.47 | 23570 | 24441 11 | 5:25.67 | 0:12.03 | 24442 | 25344 12 | 5:37.70 | 0:12.57 | 25345 | 26301 13 | 5:50.52 | 0:12.58 | 26302 | 27259 14 | 6:03.35 | 0:13.00 | 27260 | 28234 15 | 6:16.35 | 0:12.32 | 28235 | 29166 16 | 6:28.67 | 0:12.70 | 29167 | 30136 17 | 6:41.62 | 0:13.03 | 30137 | 31114 18 | 6:54.65 | 0:12.67 | 31115 | 32081 19 | 7:07.57 | 0:12.43 | 32082 | 33024 20 | 7:20.25 | 0:12.65 | 33025 | 33989 21 | 7:33.15 | 0:12.15 | 33990 | 34904 22 | 7:45.30 | 0:11.67 | 34905 | 35796 23 | 7:57.22 | 0:11.68 | 35797 | 36689 24 | 8:09.15 | 0:12.15 | 36690 | 37604 25 | 8:21.30 | 0:11.70 | 37605 | 38499 26 | 8:33.25 | 0:12.25 | 38500 | 39424 27 | 8:45.50 | 0:12.70 | 39425 | 40394 28 | 8:58.45 | 0:12.42 | 40395 | 41336 29 | 9:11.12 | 0:12.15 | 41337 | 42251 30 | 9:23.27 | 0:12.50 | 42252 | 43201 31 | 9:36.02 | 0:12.10 | 43202 | 44111 32 | 9:48.12 | 0:11.30 | 44112 | 44966 33 | 9:59.42 | 0:11.33 | 44967 | 45824 34 | 10:11.00 | 0:12.50 | 45825 | 46774 35 | 10:23.50 | 0:11.20 | 46775 | 47619 36 | 10:34.70 | 0:11.17 | 47620 | 48461 37 | 10:46.12 | 0:11.68 | 48462 | 49354 38 | 10:58.05 | 0:11.40 | 49355 | 50219 39 | 11:09.45 | 0:11.25 | 50220 | 51069 40 | 11:20.70 | 0:14.10 | 51070 | 52129 41 | 11:35.05 | 0:22.60 | 52130 | 53839 42 | 11:57.65 | 0:39.07 | 53840 | 56771 43 | 12:36.72 | 0:40.63 | 56772 | 59834 44 | 13:17.60 | 0:21.37 | 59835 | 61446 45 | 13:39.22 | 0:11.43 | 61447 | 62314 46 | 13:50.65 | 0:12.05 | 62315 | 63219 47 | 14:02.70 | 0:11.55 | 63220 | 64099 48 | 14:14.50 | 0:11.25 | 64100 | 64949 49 | 14:26.00 | 0:11.12 | 64950 | 65786 50 | 14:37.12 | 0:11.43 | 65787 | 66654 51 | 14:48.55 | 0:11.35 | 66655 | 67514 52 | 15:00.15 | 0:11.25 | 67515 | 68364 53 | 15:11.40 | 0:11.32 | 68365 | 69221 54 | 15:22.72 | 0:11.48 | 69222 | 70094 55 | 15:34.45 | 0:13.27 | 70095 | 71096 56 | 15:47.72 | 0:32.45 | 71097 | 73541 57 | 16:20.42 | 0:11.70 | 73542 | 74436 58 | 16:32.37 | 0:10.73 | 74437 | 75259 59 | 16:43.35 | 0:36.40 | 75260 | 77999 60 | 17:20.00 | 0:55.15 | 78000 | 82139 61 | 18:15.15 | 1:05.42 | 82140 | 87056 62 | 19:20.57 | 0:34.00 | 87057 | 89606 63 | 19:54.57 | 0:38.03 | 89607 | 92459 64 | 20:32.60 | 1:36.30 | 92460 | 99689 65 | 22:09.15 | 1:23.47 | 99690 | 105961 66 | 23:32.62 | 1:17.65 | 105962 | 111801 67 | 24:50.52 | 1:11.58 | 111802 | 117184 68 | 26:02.35 | 1:04.72 | 117185 | 122056 69 | 27:07.32 | 1:05.65 | 122057 | 126996 70 | 28:13.22 | 1:00.03 | 126997 | 131499 71 | 29:13.25 | 0:40.47 | 131500 | 134546 72 | 29:53.72 | 0:43.65 | 134547 | 137836 73 | 30:37.62 | 0:16.50 | 137837 | 139086 74 | 30:54.37 | 0:17.65 | 139087 | 140426 75 | 31:12.27 | 0:59.25 | 140427 | 144876 76 | 32:11.52 | 0:43.13 | 144877 | 148114 77 | 32:54.65 | 1:39.50 | 148115 | 155589 78 | 34:34.40 | 1:22.02 | 155590 | 161741 79 | 35:56.42 | 1:31.43 | 161742 | 168609 80 | 37:28.10 | 1:34.42 | 168610 | 175701 81 | 39:02.52 | 2:01.25 | 175702 | 184801 82 | 41:04.02 | 1:47.63 | 184802 | 192889 83 | 42:51.65 | 2:36.02 | 192890 | 204591 84 | 45:27.67 | 0:32.60 | 204592 | 207051 85 | 46:00.52 | 0:52.25 | 207052 | 210976 86 | 46:53.02 | 0:24.35 | 210977 | 212811 87 | 47:17.37 | 2:48.15 | 212812 | 225426 88 | 50:05.52 | 0:59.63 | 225427 | 229914 89 | 51:05.40 | 5:02.12 | 229915 | 252576 90 | 56:07.52 | 5:05.35 | 252577 | 275486 91 | 61:13.12 | 5:04.73 | 275487 | 298359 92 | 66:18.10 | 0:15.57 | 298360 | 299541
Range status and errors
Selected range
Filename C:\Users\G\Music\FLAC_Rips\Alan Parsons & Stephen Court - Sound Check.wav
Peak level 100.0 % Extraction speed 6.1 X Range quality 100.0 % Copy CRC A0E94404 Copy OK
No errors occurred
AccurateRip summary
Track 1 accurately ripped (confidence 20) [D596D6F6] (AR v2)Track 2 accurately ripped (confidence 20) [C9A6BB81] (AR v2)Track 3 accurately ripped (confidence 20) [3E2ADC27] (AR v2)Track 4 accurately ripped (confidence 20) [277252CF] (AR v2)Track 5 accurately ripped (confidence 20) [36512A00] (AR v2)Track 6 accurately ripped (confidence 20) [9A6AC134] (AR v2)Track 7 accurately ripped (confidence 20) [FEF2904F] (AR v2)Track 8 accurately ripped (confidence 20) [447FE3A6] (AR v2)Track 9 accurately ripped (confidence 20) [E73CC0E4] (AR v2)Track 10 accurately ripped (confidence 20) [C4200269] (AR v2)Track 11 accurately ripped (confidence 20) [554E7351] (AR v2)Track 12 accurately ripped (confidence 20) [341E8138] (AR v2)Track 13 accurately ripped (confidence 20) [E1B1218A] (AR v2)Track 14 accurately ripped (confidence 20) [A300C8CA] (AR v2)Track 15 accurately ripped (confidence 20) [81E9D6F8] (AR v2)Track 16 accurately ripped (confidence 20) [3D427E76] (AR v2)Track 17 accurately ripped (confidence 20) [155A3C1C] (AR v2)Track 18 accurately ripped (confidence 20) [C6E2F42E] (AR v2)Track 19 accurately ripped (confidence 20) [C18A0B0B] (AR v2)Track 20 accurately ripped (confidence 20) [946ECE07] (AR v2)Track 21 accurately ripped (confidence 20) [9959B6C1] (AR v2)Track 22 accurately ripped (confidence 20) [B875EEAB] (AR v2)Track 23 accurately ripped (confidence 20) [C13AF85E] (AR v2)Track 24 accurately ripped (confidence 20) [A11EBC26] (AR v2)Track 25 accurately ripped (confidence 20) [919EC66B] (AR v2)Track 26 accurately ripped (confidence 20) [BB0B22CE] (AR v2)Track 27 accurately ripped (confidence 20) [058E31EA] (AR v2)Track 28 accurately ripped (confidence 20) [A9137FD3] (AR v2)Track 29 accurately ripped (confidence 20) [58E2C2D4] (AR v2)Track 30 accurately ripped (confidence 20) [48A18068] (AR v2)Track 31 accurately ripped (confidence 20) [F5F51837] (AR v2)Track 32 accurately ripped (confidence 20) [B3351425] (AR v2)Track 33 accurately ripped (confidence 20) [BC021930] (AR v2)Track 34 accurately ripped (confidence 20) [C915F92C] (AR v2)Track 35 accurately ripped (confidence 20) [15E77ED0] (AR v2)Track 36 accurately ripped (confidence 20) [4E79B7BC] (AR v2)Track 37 accurately ripped (confidence 20) [AB66DE0B] (AR v2)Track 38 accurately ripped (confidence 20) [47AD95DE] (AR v2)Track 39 accurately ripped (confidence 20) [213D8842] (AR v2)Track 40 accurately ripped (confidence 20) [9E0C5BC4] (AR v2)Track 41 accurately ripped (confidence 19) [729EF073] (AR v2)Track 42 accurately ripped (confidence 20) [17160AAB] (AR v2)Track 43 accurately ripped (confidence 20) [2D26F68B] (AR v2)Track 44 accurately ripped (confidence 20) [078203BC] (AR v2)Track 45 accurately ripped (confidence 20) [B4EC0192] (AR v2)Track 46 accurately ripped (confidence 20) [355E5B5D] (AR v2)Track 47 accurately ripped (confidence 20) [456588B9] (AR v2)Track 48 accurately ripped (confidence 20) [AEC4137E] (AR v2)Track 49 accurately ripped (confidence 20) [0E9B811D] (AR v2)Track 50 accurately ripped (confidence 20) [02076457] (AR v2)Track 51 accurately ripped (confidence 20) [40169B7C] (AR v2)Track 52 accurately ripped (confidence 20) [5D13C382] (AR v2)Track 53 accurately ripped (confidence 20) [3D189BD4] (AR v2)Track 54 accurately ripped (confidence 20) [7C99C83F] (AR v2)Track 55 accurately ripped (confidence 20) [515F1077] (AR v2)Track 56 accurately ripped (confidence 20) [6D59D949] (AR v2)Track 57 accurately ripped (confidence 20) [931FB51F] (AR v2)Track 58 accurately ripped (confidence 20) [9E343A5C] (AR v2)Track 59 accurately ripped (confidence 20) [F8C68C4F] (AR v2)Track 60 accurately ripped (confidence 21) [45F93E28] (AR v2)Track 61 accurately ripped (confidence 21) [0F295273] (AR v2)Track 62 accurately ripped (confidence 21) [67D73481] (AR v2)Track 63 accurately ripped (confidence 21) [672E8386] (AR v2)Track 64 accurately ripped (confidence 21) [82C9CEE1] (AR v2)Track 65 accurately ripped (confidence 21) [C32BD8F4] (AR v2)Track 66 accurately ripped (confidence 21) [7A1E9877] (AR v2)Track 67 accurately ripped (confidence 21) [63FD5B7A] (AR v2)Track 68 accurately ripped (confidence 21) [5770E939] (AR v2)Track 69 accurately ripped (confidence 21) [AE92B78D] (AR v2)Track 70 accurately ripped (confidence 21) [D723920A] (AR v2)Track 71 accurately ripped (confidence 21) [20D792BA] (AR v2)Track 72 accurately ripped (confidence 21) [81BCB355] (AR v2)Track 73 accurately ripped (confidence 21) [F35FE096] (AR v2)Track 74 accurately ripped (confidence 21) [A841817B] (AR v2)Track 75 accurately ripped (confidence 21) [981116A1] (AR v2)Track 76 accurately ripped (confidence 21) [1CF06FAC] (AR v2)Track 77 accurately ripped (confidence 21) [72CD068F] (AR v2)Track 78 accurately ripped (confidence 21) [754CFD38] (AR v2)Track 79 accurately ripped (confidence 21) [D0C35B11] (AR v2)Track 80 accurately ripped (confidence 21) [2924978E] (AR v2)Track 81 accurately ripped (confidence 21) [8A9293DF] (AR v2)Track 82 accurately ripped (confidence 21) [238A911B] (AR v2)Track 83 accurately ripped (confidence 21) [FE9BAB81] (AR v2)Track 84 accurately ripped (confidence 21) [95CDFF11] (AR v2)Track 85 accurately ripped (confidence 21) [01F68B69] (AR v2)Track 86 accurately ripped (confidence 21) [6D6B5768] (AR v2)Track 87 accurately ripped (confidence 21) [42E7E23F] (AR v2)Track 88 accurately ripped (confidence 21) [463ED700] (AR v2)Track 89 accurately ripped (confidence 20) [D11FEC9C] (AR v2)Track 90 accurately ripped (confidence 20) [34151F2B] (AR v2)Track 91 accurately ripped (confidence 20) [5F3B6FDF] (AR v2)Track 92 accurately ripped (confidence 20) [D4B5BD89] (AR v2)
All tracks accurately ripped
End of status report
---- CUETools DB Plugin V2.1.6
[CTDB TOCID: zWbu1regA6g1.WXhw6UdJf7wa8w-] foundSubmit result: zWbu1regA6g1.WXhw6UdJf7wa8w- has been confirmedTrack | CTDB Status 1 | ( 95/100) Accurately ripped 2 | ( 97/100) Accurately ripped 3 | ( 95/100) Accurately ripped 4 | ( 95/100) Accurately ripped 5 | ( 95/100) Accurately ripped 6 | ( 96/100) Accurately ripped 7 | ( 96/100) Accurately ripped 8 | ( 96/100) Accurately ripped 9 | ( 97/100) Accurately ripped 10 | ( 96/100) Accurately ripped 11 | ( 97/100) Accurately ripped 12 | ( 96/100) Accurately ripped 13 | ( 97/100) Accurately ripped 14 | ( 96/100) Accurately ripped 15 | ( 97/100) Accurately ripped 16 | ( 96/100) Accurately ripped 17 | ( 97/100) Accurately ripped 18 | ( 97/100) Accurately ripped 19 | ( 97/100) Accurately ripped 20 | ( 96/100) Accurately ripped 21 | ( 97/100) Accurately ripped 22 | ( 97/100) Accurately ripped 23 | ( 97/100) Accurately ripped 24 | ( 97/100) Accurately ripped 25 | ( 96/100) Accurately ripped 26 | ( 97/100) Accurately ripped 27 | ( 97/100) Accurately ripped 28 | ( 97/100) Accurately ripped 29 | ( 97/100) Accurately ripped 30 | ( 98/100) Accurately ripped 31 | ( 98/100) Accurately ripped 32 | ( 97/100) Accurately ripped 33 | ( 98/100) Accurately ripped 34 | ( 96/100) Accurately ripped 35 | ( 97/100) Accurately ripped 36 | ( 97/100) Accurately ripped 37 | ( 97/100) Accurately ripped 38 | ( 97/100) Accurately ripped 39 | ( 98/100) Accurately ripped 40 | ( 98/100) Accurately ripped 41 | ( 93/100) Accurately ripped 42 | ( 96/100) Accurately ripped 43 | ( 98/100) Accurately ripped 44 | ( 98/100) Accurately ripped 45 | ( 97/100) Accurately ripped 46 | ( 98/100) Accurately ripped 47 | ( 98/100) Accurately ripped 48 | ( 97/100) Accurately ripped 49 | ( 98/100) Accurately ripped 50 | ( 98/100) Accurately ripped 51 | ( 97/100) Accurately ripped 52 | ( 96/100) Accurately ripped 53 | ( 98/100) Accurately ripped 54 | ( 98/100) Accurately ripped 55 | ( 98/100) Accurately ripped 56 | ( 97/100) Accurately ripped 57 | ( 98/100) Accurately ripped 58 | ( 95/100) Accurately ripped 59 | ( 99/100) Accurately ripped 60 | ( 98/100) Accurately ripped 61 | ( 98/100) Accurately ripped 62 | ( 97/100) Accurately ripped 63 | ( 98/100) Accurately ripped 64 | ( 98/100) Accurately ripped 65 | ( 97/100) Accurately ripped 66 | ( 97/100) Accurately ripped 67 | ( 99/100) Accurately ripped 68 | ( 99/100) Accurately ripped 69 | ( 98/100) Accurately ripped 70 | ( 97/100) Accurately ripped 71 | ( 97/100) Accurately ripped 72 | ( 99/100) Accurately ripped 73 | ( 99/100) Accurately ripped 74 | ( 99/100) Accurately ripped 75 | ( 98/100) Accurately ripped 76 | ( 98/100) Accurately ripped 77 | ( 94/100) Accurately ripped 78 | ( 95/100) Accurately ripped 79 | ( 95/100) Accurately ripped 80 | ( 96/100) Accurately ripped 81 | ( 96/100) Accurately ripped 82 | ( 97/100) Accurately ripped 83 | ( 95/100) Accurately ripped 84 | ( 97/100) Accurately ripped 85 | ( 96/100) Accurately ripped 86 | ( 97/100) Accurately ripped 87 | ( 93/100) Accurately ripped 88 | ( 93/100) Accurately ripped 89 | ( 94/100) Accurately ripped 90 | ( 95/100) Accurately ripped 91 | ( 93/100) Accurately ripped 92 | ( 95/100) Accurately ripped
==== Log checksum 5222D440D0330AA27589A080D17C5A668B8FA2A3CA4F044F1137043D7C19F704 ====

Содержание индексной карты (.CUE)

REM DATE 1993REM DISCID 5C0F995CREM COMMENT "ExactAudioCopy v1.5"PERFORMER "Alan Parsons & Stephen Court"TITLE "Sound Check"REM COMPOSER ""FILE "Alan Parsons & Stephen Court - Sound Check (MFSL SPCD 15).flac" WAVE  TRACK 01 AUDIO    TITLE "1kHz Ref. Tone @ -14dB FS"    PERFORMER "Alan Parsons & Stephen Court"    REM COMPOSER ""    INDEX 01 00:00:00  TRACK 02 AUDIO    TITLE "Pink Noise L"    PERFORMER "Alan Parsons & Stephen Court"    REM COMPOSER ""    INDEX 00 00:33:55    INDEX 01 00:35:72  TRACK 03 AUDIO    TITLE "Pink Noise R"    PERFORMER "Alan Parsons & Stephen Court"    REM COMPOSER ""    INDEX 00 00:58:32    INDEX 01 01:00:05  TRACK 04 AUDIO    TITLE "Pink Noise L+R & Phase Check"    PERFORMER "Alan Parsons & Stephen Court"    REM COMPOSER ""    INDEX 00 01:20:17    INDEX 01 01:22:42    INDEX 02 01:43:40  TRACK 05 AUDIO    TITLE "Pink Noise: Bass 0–200Hz & Phase Check"    PERFORMER "Alan Parsons & Stephen Court"    REM COMPOSER ""    INDEX 00 02:04:00    INDEX 01 02:05:52    INDEX 02 02:26:40  TRACK 06 AUDIO    TITLE "Pink Noise: Low Mid 200Hz–1kHz & Phase Check"    PERFORMER "Alan Parsons & Stephen Court"    REM COMPOSER ""    INDEX 00 02:46:15    INDEX 01 02:48:15    INDEX 02 03:09:12  TRACK 07 AUDIO    TITLE "Pink Noise: High Mid 1kHz – 8 & Phase Check"    PERFORMER "Alan Parsons & Stephen Court"    REM COMPOSER ""    INDEX 00 03:28:65    INDEX 01 03:30:62    INDEX 02 03:51:10  TRACK 08 AUDIO    TITLE "Pink Noise: HF 7kHz – 8 & Phase Check"    PERFORMER "Alan Parsons & Stephen Court"    REM COMPOSER ""    INDEX 00 04:10:62    INDEX 01 04:12:42    INDEX 02 04:32:60  TRACK 09 AUDIO    TITLE ". Octave: 1kHz Ref. Tone"    PERFORMER "Alan Parsons & Stephen Court"    REM COMPOSER ""    INDEX 00 04:52:32    INDEX 01 04:56:72  TRACK 10 AUDIO    TITLE ". Octave: 20Hz"    PERFORMER "Alan Parsons & Stephen Court"    REM COMPOSER ""    INDEX 00 05:11:52    INDEX 01 05:14:20  TRACK 11 AUDIO    TITLE ". Octave: 25Hz"    PERFORMER "Alan Parsons & Stephen Court"    REM COMPOSER ""    INDEX 00 05:24:45    INDEX 01 05:25:67  TRACK 12 AUDIO    TITLE ". Octave: 31.5Hz"    PERFORMER "Alan Parsons & Stephen Court"    REM COMPOSER ""    INDEX 00 05:36:20    INDEX 01 05:37:70  TRACK 13 AUDIO    TITLE ". Octave: 40Hz"    PERFORMER "Alan Parsons & Stephen Court"    REM COMPOSER ""    INDEX 00 05:48:22    INDEX 01 05:50:52  TRACK 14 AUDIO    TITLE ". Octave: 50Hz"    PERFORMER "Alan Parsons & Stephen Court"    REM COMPOSER ""    INDEX 00 06:01:05    INDEX 01 06:03:35  TRACK 15 AUDIO    TITLE ". Octave: 63Hz"    PERFORMER "Alan Parsons & Stephen Court"    REM COMPOSER ""    INDEX 00 06:13:60    INDEX 01 06:16:35  TRACK 16 AUDIO    TITLE ". Octave: 80Hz"    PERFORMER "Alan Parsons & Stephen Court"    REM COMPOSER ""    INDEX 00 06:26:62    INDEX 01 06:28:67  TRACK 17 AUDIO    TITLE ". Octave: 100Hz"    PERFORMER "Alan Parsons & Stephen Court"    REM COMPOSER ""    INDEX 00 06:39:20    INDEX 01 06:41:62  TRACK 18 AUDIO    TITLE ". Octave: 125Hz"    PERFORMER "Alan Parsons & Stephen Court"    REM COMPOSER ""    INDEX 00 06:52:12    INDEX 01 06:54:65  TRACK 19 AUDIO    TITLE ". Octave: 160Hz"    PERFORMER "Alan Parsons & Stephen Court"    REM COMPOSER ""    INDEX 00 07:05:15    INDEX 01 07:07:57  TRACK 20 AUDIO    TITLE ". Octave: 200Hz"    PERFORMER "Alan Parsons & Stephen Court"    REM COMPOSER ""    INDEX 00 07:18:10    INDEX 01 07:20:25  TRACK 21 AUDIO    TITLE ". Octave: 250Hz"    PERFORMER "Alan Parsons & Stephen Court"    REM COMPOSER ""    INDEX 00 07:30:52    INDEX 01 07:33:15  TRACK 22 AUDIO    TITLE ". Octave: 315Hz"    PERFORMER "Alan Parsons & Stephen Court"    REM COMPOSER ""    INDEX 00 07:43:42    INDEX 01 07:45:30  TRACK 23 AUDIO    TITLE ". Octave: 400Hz"    PERFORMER "Alan Parsons & Stephen Court"    REM COMPOSER ""    INDEX 00 07:55:57    INDEX 01 07:57:22  TRACK 24 AUDIO    TITLE ". Octave: 500Hz"    PERFORMER "Alan Parsons & Stephen Court"    REM COMPOSER ""    INDEX 00 08:07:46    INDEX 01 08:09:15  TRACK 25 AUDIO    TITLE ". Octave: 630Hz"    PERFORMER "Alan Parsons & Stephen Court"    REM COMPOSER ""    INDEX 00 08:19:40    INDEX 01 08:21:30  TRACK 26 AUDIO    TITLE ". Octave: 800Hz"    PERFORMER "Alan Parsons & Stephen Court"    REM COMPOSER ""    INDEX 00 08:31:55    INDEX 01 08:33:25  TRACK 27 AUDIO    TITLE ". Octave: 1kHz"    PERFORMER "Alan Parsons & Stephen Court"    REM COMPOSER ""    INDEX 00 08:43:50    INDEX 01 08:45:50  TRACK 28 AUDIO    TITLE ". Octave: 1.25kHz"    PERFORMER "Alan Parsons & Stephen Court"    REM COMPOSER ""    INDEX 00 08:56:00    INDEX 01 08:58:45  TRACK 29 AUDIO    TITLE ". Octave: 1.6kHz"    PERFORMER "Alan Parsons & Stephen Court"    REM COMPOSER ""    INDEX 00 09:08:70    INDEX 01 09:11:12  TRACK 30 AUDIO    TITLE ". Octave: 2kHz"    PERFORMER "Alan Parsons & Stephen Court"    REM COMPOSER ""    INDEX 00 09:21:37    INDEX 01 09:23:27  TRACK 31 AUDIO    TITLE ". Octave: 2.5kHz"    PERFORMER "Alan Parsons & Stephen Court"    REM COMPOSER ""    INDEX 00 09:33:50    INDEX 01 09:36:02  TRACK 32 AUDIO    TITLE ". Octave: 3.15kHz"    PERFORMER "Alan Parsons & Stephen Court"    REM COMPOSER ""    INDEX 00 09:46:27    INDEX 01 09:48:12  TRACK 33 AUDIO    TITLE ". Octave: 4kHz"    PERFORMER "Alan Parsons & Stephen Court"    REM COMPOSER ""    INDEX 00 09:58:37    INDEX 01 09:59:42  TRACK 34 AUDIO    TITLE ". Octave: 5kHz"    PERFORMER "Alan Parsons & Stephen Court"    REM COMPOSER ""    INDEX 00 10:09:67    INDEX 01 10:11:00  TRACK 35 AUDIO    TITLE ". Octave: 6.3kHz"    PERFORMER "Alan Parsons & Stephen Court"    REM COMPOSER ""    INDEX 00 10:21:27    INDEX 01 10:23:50  TRACK 36 AUDIO    TITLE ". Octave: 8kHz"    PERFORMER "Alan Parsons & Stephen Court"    REM COMPOSER ""    INDEX 00 10:34:00    INDEX 01 10:34:70  TRACK 37 AUDIO    TITLE ". Octave: 10kHz"    PERFORMER "Alan Parsons & Stephen Court"    REM COMPOSER ""    INDEX 00 10:45:17    INDEX 01 10:46:12  TRACK 38 AUDIO    TITLE ". Octave: 12.5kHz"    PERFORMER "Alan Parsons & Stephen Court"    REM COMPOSER ""    INDEX 00 10:56:35    INDEX 01 10:58:05  TRACK 39 AUDIO    TITLE ". Octave: 16kHz"    PERFORMER "Alan Parsons & Stephen Court"    REM COMPOSER ""    INDEX 00 11:08:27    INDEX 01 11:09:45  TRACK 40 AUDIO    TITLE ". Octave: 20kHz"    PERFORMER "Alan Parsons & Stephen Court"    REM COMPOSER ""    INDEX 00 11:19:70    INDEX 01 11:20:70  TRACK 41 AUDIO    TITLE "Sweeps: 1kHz Ref. Warble"    PERFORMER "Alan Parsons & Stephen Court"    REM COMPOSER ""    INDEX 00 11:31:20    INDEX 01 11:35:05  TRACK 42 AUDIO    TITLE "Sweeps: 1kHz–500Hz, 500Hz–250Hz, 250Hz–125Hz, 125Hz–20Hz"    PERFORMER "Alan Parsons & Stephen Court"    REM COMPOSER ""    INDEX 00 11:54:62    INDEX 01 11:57:65  TRACK 43 AUDIO    TITLE "Sweeps: 1kHz–2kHz, 2kHz–4kHz, 4kHz–8kHz"    PERFORMER "Alan Parsons & Stephen Court"    REM COMPOSER ""    INDEX 00 12:34:45    INDEX 01 12:36:72  TRACK 44 AUDIO    TITLE "Sine: 1kHz Ref. Tone @ -14dB FS"    PERFORMER "Alan Parsons & Stephen Court"    REM COMPOSER ""    INDEX 00 13:14:00    INDEX 01 13:17:60  TRACK 45 AUDIO    TITLE "Sine: 60Hz"    PERFORMER "Alan Parsons & Stephen Court"    REM COMPOSER ""    INDEX 00 13:37:72    INDEX 01 13:39:22  TRACK 46 AUDIO    TITLE "Sine: 100Hz"    PERFORMER "Alan Parsons & Stephen Court"    REM COMPOSER ""    INDEX 00 13:49:47    INDEX 01 13:50:65  TRACK 47 AUDIO    TITLE "Sine: 250Hz"    PERFORMER "Alan Parsons & Stephen Court"    REM COMPOSER ""    INDEX 00 14:01:17    INDEX 01 14:02:70  TRACK 48 AUDIO    TITLE "Sine: 500Hz"    PERFORMER "Alan Parsons & Stephen Court"    REM COMPOSER ""    INDEX 00 14:13:20    INDEX 01 14:14:50  TRACK 49 AUDIO    TITLE "Sine: 1kHz"    PERFORMER "Alan Parsons & Stephen Court"    REM COMPOSER ""    INDEX 00 14:25:00    INDEX 01 14:26:00  TRACK 50 AUDIO    TITLE "Sine: 2kHz"    PERFORMER "Alan Parsons & Stephen Court"    REM COMPOSER ""    INDEX 00 14:36:25    INDEX 01 14:37:12  TRACK 51 AUDIO    TITLE "Sine: 3kHz"    PERFORMER "Alan Parsons & Stephen Court"    REM COMPOSER ""    INDEX 00 14:47:37    INDEX 01 14:48:55  TRACK 52 AUDIO    TITLE "Sine: 5kHz"    PERFORMER "Alan Parsons & Stephen Court"    REM COMPOSER ""    INDEX 00 14:59:05    INDEX 01 15:00:15  TRACK 53 AUDIO    TITLE "Sine: 10kHz"    PERFORMER "Alan Parsons & Stephen Court"    REM COMPOSER ""    INDEX 00 15:10:40    INDEX 01 15:11:40  TRACK 54 AUDIO    TITLE "Sine: 12kHz"    PERFORMER "Alan Parsons & Stephen Court"    REM COMPOSER ""    INDEX 00 15:21:67    INDEX 01 15:22:72  TRACK 55 AUDIO    TITLE "Sine: 15kHz"    PERFORMER "Alan Parsons & Stephen Court"    REM COMPOSER ""    INDEX 00 15:33:22    INDEX 01 15:34:45  TRACK 56 AUDIO    TITLE "Sine Sweep: 20Hz–20kHz"    PERFORMER "Alan Parsons & Stephen Court"    REM COMPOSER ""    INDEX 00 15:44:70    INDEX 01 15:47:72  TRACK 57 AUDIO    TITLE "Square: 1kHz @ -20dB FS"    PERFORMER "Alan Parsons & Stephen Court"    REM COMPOSER ""    INDEX 00 16:18:25    INDEX 01 16:20:42  TRACK 58 AUDIO    TITLE "Square: 5kHz @ -20dB FS"    PERFORMER "Alan Parsons & Stephen Court"    REM COMPOSER ""    INDEX 00 16:30:67    INDEX 01 16:32:37  TRACK 59 AUDIO    TITLE "Max Level Tone: 1kHz Sine @ 0dB FS"    PERFORMER "Alan Parsons & Stephen Court"    REM COMPOSER ""    INDEX 00 16:42:65    INDEX 01 16:43:35  TRACK 60 AUDIO    TITLE "Spoken Word"    PERFORMER "Alan Parsons & Stephen Court"    REM COMPOSER ""    INDEX 00 17:16:65    INDEX 01 17:20:00  TRACK 61 AUDIO    TITLE "Piano"    PERFORMER "Alan Parsons & Stephen Court"    REM COMPOSER ""    INDEX 00 18:14:05    INDEX 01 18:15:15  TRACK 62 AUDIO    TITLE "Acoustic Guitar – Finger-Style"    PERFORMER "Alan Parsons & Stephen Court"    REM COMPOSER ""    INDEX 00 19:17:17    INDEX 01 19:20:57  TRACK 63 AUDIO    TITLE "Acoustic Guitar – Strummed"    PERFORMER "Alan Parsons & Stephen Court"    REM COMPOSER ""    INDEX 00 19:51:37    INDEX 01 19:54:57  TRACK 64 AUDIO    TITLE "Spanish Guitar"    PERFORMER "Alan Parsons & Stephen Court"    REM COMPOSER ""    INDEX 00 20:30:35    INDEX 01 20:32:60  TRACK 65 AUDIO    TITLE "Electric Guitar – Clean"    PERFORMER "Alan Parsons & Stephen Court"    REM COMPOSER ""    INDEX 00 22:06:25    INDEX 01 22:09:15  TRACK 66 AUDIO    TITLE "Electric Guitar – Distorted"    PERFORMER "Alan Parsons & Stephen Court"    REM COMPOSER ""    INDEX 00 23:30:32    INDEX 01 23:32:62  TRACK 67 AUDIO    TITLE "Bass Guitar"    PERFORMER "Alan Parsons & Stephen Court"    REM COMPOSER ""    INDEX 00 24:47:50    INDEX 01 24:50:52  TRACK 68 AUDIO    TITLE "Flute"    PERFORMER "Alan Parsons & Stephen Court"    REM COMPOSER ""    INDEX 00 25:59:06    INDEX 01 26:02:35  TRACK 69 AUDIO    TITLE "Saxophone"    PERFORMER "Alan Parsons & Stephen Court"    REM COMPOSER ""    INDEX 00 27:05:22    INDEX 01 27:07:32  TRACK 70 AUDIO    TITLE "Vocal"    PERFORMER "Alan Parsons & Stephen Court"    REM COMPOSER ""    INDEX 00 28:10:12    INDEX 01 28:13:22  TRACK 71 AUDIO    TITLE "Bongos"    PERFORMER "Alan Parsons & Stephen Court"    REM COMPOSER ""    INDEX 00 29:11:60    INDEX 01 29:13:25  TRACK 72 AUDIO    TITLE "Tambourine"    PERFORMER "Alan Parsons & Stephen Court"    REM COMPOSER ""    INDEX 00 29:51:22    INDEX 01 29:53:72  TRACK 73 AUDIO    TITLE "Kick Drum"    PERFORMER "Alan Parsons & Stephen Court"    REM COMPOSER ""    INDEX 00 30:36:20    INDEX 01 30:37:62  TRACK 74 AUDIO    TITLE "Snare Drum"    PERFORMER "Alan Parsons & Stephen Court"    REM COMPOSER ""    INDEX 00 30:52:02    INDEX 01 30:54:37  TRACK 75 AUDIO    TITLE "Cymbals and Hi-Hat"    PERFORMER "Alan Parsons & Stephen Court"    REM COMPOSER ""    INDEX 00 31:09:50    INDEX 01 31:12:27  TRACK 76 AUDIO    TITLE "Toms"    PERFORMER "Alan Parsons & Stephen Court"    REM COMPOSER ""    INDEX 00 32:08:17    INDEX 01 32:11:52  TRACK 77 AUDIO    TITLE "Whole Drum Kit"    PERFORMER "Alan Parsons & Stephen Court"    REM COMPOSER ""    INDEX 00 32:51:12    INDEX 01 32:54:65  TRACK 78 AUDIO    TITLE "Violins"    PERFORMER "Alan Parsons & Stephen Court"    REM COMPOSER ""    INDEX 00 34:31:22    INDEX 01 34:34:40  TRACK 79 AUDIO    TITLE "Cellos and Violas"    PERFORMER "Alan Parsons & Stephen Court"    REM COMPOSER ""    INDEX 00 35:53:65    INDEX 01 35:56:42  TRACK 80 AUDIO    TITLE "The Race"    PERFORMER "Yello"    REM COMPOSER ""    INDEX 00 37:19:64    INDEX 01 37:28:10  TRACK 81 AUDIO    TITLE "Limelight"    PERFORMER "The Alan Parsons Project"    REM COMPOSER ""    INDEX 00 39:00:17    INDEX 01 39:02:52  TRACK 82 AUDIO    TITLE "Seasons of Our Lives"    PERFORMER "Graham de Wilde & Mitch Dalton"    REM COMPOSER ""    INDEX 00 41:01:12    INDEX 01 41:04:02  TRACK 83 AUDIO    TITLE "Bach’s Toccata and Fugue in D Minor"    PERFORMER "Daniel Chorzempa"    REM COMPOSER ""    INDEX 00 42:48:15    INDEX 01 42:51:65  TRACK 84 AUDIO    TITLE "Sub-Machine Gun"    PERFORMER "Alan Parsons & Stephen Court"    REM COMPOSER ""    INDEX 00 45:24:67    INDEX 01 45:27:67  TRACK 85 AUDIO    TITLE "Chieftain Tank"    PERFORMER "Alan Parsons & Stephen Court"    REM COMPOSER ""    INDEX 00 45:57:35    INDEX 01 46:00:52  TRACK 86 AUDIO    TITLE "Thunderstorm"    PERFORMER "Alan Parsons & Stephen Court"    REM COMPOSER ""    INDEX 00 46:50:00    INDEX 01 46:53:02  TRACK 87 AUDIO    TITLE "Steam Trains"    PERFORMER "Alan Parsons & Stephen Court"    REM COMPOSER ""    INDEX 00 47:16:07    INDEX 01 47:17:37  TRACK 88 AUDIO    TITLE "1000mph Jet Flypast"    PERFORMER "Alan Parsons & Stephen Court"    REM COMPOSER ""    INDEX 00 50:03:45    INDEX 01 50:05:52  TRACK 89 AUDIO    TITLE "EBU 25 Frame Timecode (10:00:00 to 10:05:00)"    PERFORMER "Alan Parsons & Stephen Court"    REM COMPOSER ""    INDEX 00 50:59:65    INDEX 01 51:05:40  TRACK 90 AUDIO    TITLE "SMPTE Non-Drop Frame Timecode (10:00:00 to 10:05:00)"    PERFORMER "Alan Parsons & Stephen Court"    REM COMPOSER ""    INDEX 00 56:04:62    INDEX 01 56:07:52  TRACK 91 AUDIO    TITLE "SMPTE Drop Frame Timecode (10:00:00 to 10:05:00)"    PERFORMER "Alan Parsons & Stephen Court"    REM COMPOSER ""    INDEX 00 61:08:02    INDEX 01 61:13:12  TRACK 92 AUDIO    TITLE "A-440 Tuning Reference"    PERFORMER "Alan Parsons & Stephen Court"    REM COMPOSER ""    INDEX 00 66:13:05    INDEX 01 66:18:10

Скриншот/треклист

[only-soft.org].t118209.torrent
Torrent: Registered   [ 2020-06-30 02:20 ]

42 KB

Status: checked
Completed: 1 times
Size: 257 MB
Rate: 
(Vote: 0)
Have thanked: 0  Thanks
Mobile Fidelity Sound Lab - Alan Parsons & Stephen Court - Sound Check -1993 (MFSL SPCD 15б, USA) (tracks + .cue) FLAC скачать торрент бесплатно и без регистрации
[Profile] [PM]
Display posts from previous:    
Reply to topic

The time now is: Today 16:31

All times are GMT + 4 Hours



You cannot post new topics in this forum
You cannot reply to topics in this forum
You cannot edit your posts in this forum
You cannot delete your posts in this forum
You cannot vote in polls in this forum
You cannot attach files in this forum
You can download files in this forum