Euro truck simulator 2 (multiplayer) [Большой рейс в модификации игры "multiplayer", HD]

Reply to topic
DL-List and Torrent activity
Size:  14.08 GB   |    Registered:  4 years 9 months   |    Completed:  0 times
Seeders:  78  [  0 KB/s  ]   Leechers:  8  [  0 KB/s  ]   Show peers in full details
 
   
 
 
Author Message

Скачать CorelDraw ®

Gender:

Longevity: 5 years 1 month

Posts: 1156

Post 13-Aug-2015 04:10

[Quote]

Euro truck simulator 2 (multiplayer)
Год выпуска: 2015
Создатель видео:
Продолжительность: 02:39:08
Субтитры: нет
Язык озвучки : нет
Качество: HD
Формат: MP4
Краткое описание: Большой рейс в модификации игры "multiplayer"
Описание:
Запись рейса из Ливерпуля в Сегед. Перевозим неспеша трактор под музыку конца прошлого века. Особого ничего в дороге нет, это "любительская" съёмка. Хотел запечатлеть инциденты на дороге, но вышло почти всё хорошо, даже немцы похвалили за вождение. ) Видео для любителей дорожной романтики и новичков.
Доп. информация:
Внимание! Уровень громкости основных звуков уменьшен, местами включаю радио на всю катушку!
За огромный размер файла прошу простить..

MediaInfo:

General
Complete name               : Z:\download\Euro truck simulator 2 - videos\ETS2. Liverpool - Szeged [tractor RS-666].mp4
Format                      : MPEG-4
Format profile              : Base Media
Codec ID                    : isom
File size                   : 14.1 GiB
Duration                    : 2h 39mn
Overall bit rate            : 12.7 Mbps
Writing application         : Lavf56.25.101
Video
ID                          : 1
Format                      : AVC
Format/Info                 : Advanced Video Codec
Format profile              : [email protected]
Format settings, CABAC      : Yes
Format settings, ReFrames   : 4 frames
Codec ID                    : avc1
Codec ID/Info               : Advanced Video Coding
Duration                    : 2h 39mn
Bit rate                    : 12.5 Mbps
Width                       : 1 280 pixels
Height                      : 1 024 pixels
Display aspect ratio        : 5:4
Frame rate mode             : Constant
Frame rate                  : 30.000 fps
Color space                 : YUV
Chroma subsampling          : 4:2:0
Bit depth                   : 8 bits
Scan type                   : Progressive
Bits/(Pixel*Frame)          : 0.318
Stream size                 : 13.9 GiB (99%)
Writing library             : x264 core 146 r2538 121396c
Encoding settings           : cabac=1 / ref=1 / deblock=1:0:0 / analyse=0x3:0x113 / me=hex / subme=2 / psy=1 / psy_rd=1.00:0.00 / mixed_ref=0 / me_range=16 / chroma_me=1 / trellis=0 / 8x8dct=1 / cqm=0 / deadzone=21,11 / fast_pskip=1 / chroma_qp_offset=0 / threads=12 / lookahead_threads=4 / sliced_threads=0 / nr=0 / decimate=1 / interlaced=0 / bluray_compat=0 / constrained_intra=0 / bframes=3 / b_pyramid=2 / b_adapt=1 / b_bias=0 / direct=1 / weightb=1 / open_gop=0 / weightp=1 / keyint=250 / keyint_min=25 / scenecut=40 / intra_refresh=0 / rc_lookahead=10 / rc=cbr / mbtree=1 / bitrate=12500 / ratetol=1.0 / qcomp=0.60 / qpmin=0 / qpmax=69 / qpstep=4 / vbv_maxrate=12500 / vbv_bufsize=12500 / nal_hrd=none / filler=1 / ip_ratio=1.40 / aq=1:1.00
Color range                 : Limited
Color primaries             : BT.709
Transfer characteristics    : BT.709
Matrix coefficients         : BT.709
Audio
ID                          : 2
Format                      : AAC
Format/Info                 : Advanced Audio Codec
Format profile              : LC
Codec ID                    : 40
Duration                    : 2h 39mn
Bit rate mode               : Constant
Bit rate                    : 160 Kbps
Channel(s)                  : 2 channels
Channel positions           : Front: L R
Sampling rate               : 44.1 KHz
Compression mode            : Lossy
Stream size                 : 182 MiB (1%)
Title                       : Track1

Скриншоты

[only-soft.org].t32273.torrent
Torrent: Registered   [ 2015-08-13 04:10 ]

36 KB

Status: checked
Completed: 0 times
Size: 14.08 GB
Rate: 
(Vote: 1)
Have thanked: 1  Thanks   (List)
Euro truck simulator 2 (multiplayer) [Большой рейс в модификации игры "multiplayer", HD] скачать торрент бесплатно и без регистрации
[Profile] [PM]
Forum Topic Author Size
Cимуляторы (Krone Trailer Pack) Euro Truck Simulator 2 [P] [RUS + ENG / RUS + ENG] (2013) (1.32.3 + 61 DLC) [Scene] Драйвер Пак 4.78 GB
Cимуляторы Euro Truck Simulator / Big Rig Europe / С грузом по Европе [L] [RUS / RUS] (2008) (1.0) [Акелла] Скачать Norton Antivirus 683 MB
Игры для Linux Euro Truck Simulator 2 (1.17.1s) [x86, amd64] [Native] Жесткий диск 2.47 GB
Cимуляторы Euro Truck Simulator 2 (v 1.27.2.4s + 53 DLC) [2012г.] | Repack от =nemos= Stalker20150 1.85 GB
Cимуляторы Euro Truck Simulator 2 (v.1.27.2.9s + 53 DLC) [2013г.] | RePack от qoob Stalker20150 1.86 GB
Игры для Linux Euro Truck Simulator 2 (v1.25.3s + 44 DLC) [x86, amd64] [RUS / ENG / Multi41] [Native] Жесткий диск 2.75 GB
Cимуляторы Euro Truck Simulator 2 (v1.28.1.2s + 53 DLC) [2013г.] | RePack by xatab Stalker20150 1.88 GB
Cимуляторы Euro Truck Simulator 2 - CoronerLemurModPack (2018) PC | Mod Скачать Windows 27.38 GB
Display posts from previous:    
Reply to topic

The time now is: Today 09:02

All times are GMT + 4 Hours



You cannot post new topics in this forum
You cannot reply to topics in this forum
You cannot edit your posts in this forum
You cannot delete your posts in this forum
You cannot vote in polls in this forum
You cannot attach files in this forum
You can download files in this forum