Search found 649 matches

Author Message

Скачать CorelDraw

Post 06-Jan-2022 05:10

[Quote]

Игра с силой: История Nintendo / Playing with Power: The Nintendo Story
Год выпуска: 2021
Страна: США
Жанр: Документальный
Продолжительность: ~60 мин
Перевод: Профессиональный (многоголосый закадровый) HDrezka Studio
Оригинальная аудиодорожка: английская
Субтитры: русские (форсированные), английские
Навигация по главам: нет
Режиссер: Джереми Снид / Jeremy Snead
В ролях: Шон Эстин /Sean Astin/, Уил Уитон /Wil Wheaton/, Элисон Хэйслип /Alison Haislip/, Клифф Блежински /Cliff Bleszinski/, Томми Талларико /Tommy Tallarico/, Нолан Бушнелл /Nolan Bushnell/
Описание: Документальный сериал об истории легендарной японской компании Nintendo, совершившей революцию в индустрии видеоигр.
Качество видео: WEBRip | Playing.With.Power.The.Nintendo.Story.S01.720p.WEBRip.AAC2.0.x264-WHOSNEXT
Формат: MKV
Видео кодек: H.264
Аудио кодек: AC3|AAC
Видео: 1280x720, 23,976 fps, 1500 kbps
Аудио: AC3, stereo, 192 kbps, 48 kHz (HDrezka Studio)
Аудио: AAC, stereo, 64 kbps, 48 kHz (Оригинальная англоязычная озвучка)
Субтитры: русские (форсированные), английские
Скачать: SAMPLE 21.90MB
Дополнительная информация: Реклама удалена.

Список серий

01. Разыграй свои козыри / Play Your Cards Right
02. Троянский конь / A Trojan Horse
03. Спящий гигант / A Sleeping Giant
04. Инерция / Forward Motion
05. Кнопка перезагрузки / Reset Button

MediaInfo

Формат : Matroska
Версия формата : Version 4
Размер файла : 904 Мбайт
Продолжительность : 1 ч. 11 м.
Общий поток : 1758 Кбит/сек
Дата кодирования : UTC 2022-01-05 23:00:02
Программа кодирования : mkvmerge v8.3.0 ('Over the Horizon') 64bit
Библиотека кодирования : libebml v1.3.1 + libmatroska v1.4.2
Видео
Идентификатор : 1
Формат : AVC
Формат/Информация : Advanced Video Codec
Профиль формата : [email protected]
Настройки формата : CABAC / 4 Ref Frames
Параметр CABAC формата : Да
Параметр RefFrames формата : 4 кадра
Идентификатор кодека : V_MPEG4/ISO/AVC
Продолжительность : 1 ч. 11 м.
Битрейт : 1500 Кбит/сек
Ширина : 1280 пикселей
Высота : 720 пикселей
Соотношение сторон : 16:9
Режим частоты кадров : Постоянный
Частота кадров : 23,976 (24000/1001) кадра/сек
Цветовое пространство : YUV
Субдискретизация насыщенности : 4:2:0
Битовая глубина : 8 бит
Тип развёртки : Прогрессивная
Бит/(Пиксели*Кадры) : 0.068
Размер потока : 771 Мбайт (85%)
Библиотека кодирования : x264 core 148
Настройки программы : cabac=1 / ref=2 / deblock=1:0:0 / analyse=0x3:0x113 / me=hex / subme=7 / psy=1 / psy_rd=1.00:0.00 / mixed_ref=1 / me_range=16 / chroma_me=1 / trellis=1 / 8x8dct=1 / cqm=0 / deadzone=21,11 / fast_pskip=1 / chroma_qp_offset=-2 / threads=22 / lookahead_threads=3 / sliced_threads=0 / nr=0 / decimate=1 / interlaced=0 / bluray_compat=0 / constrained_intra=0 / bframes=3 / b_pyramid=2 / b_adapt=1 / b_bias=0 / direct=1 / weightb=1 / open_gop=0 / weightp=2 / keyint=82 / keyint_min=8 / scenecut=0 / intra_refresh=0 / rc_lookahead=40 / rc=abr / mbtree=1 / bitrate=1500 / ratetol=1.0 / qcomp=0.60 / qpmin=0 / qpmax=69 / qpstep=4 / vbv_maxrate=1750 / vbv_bufsize=17500 / nal_hrd=none / filler=0 / ip_ratio=1.40 / aq=1:1.00
Язык : English
Default : Да
Forced : Нет
Цветовой диапазон : Limited
Основные цвета : BT.709
Характеристики трансфера : BT.709
Коэффициенты матрицы : BT.709
Аудио #1
Идентификатор : 2
Формат : AC-3
Формат/Информация : Audio Coding 3
Коммерческое название : Dolby Digital
Идентификатор кодека : A_AC3
Продолжительность : 1 ч. 11 м.
Вид битрейта : Постоянный
Битрейт : 192 Кбит/сек
Каналы : 2 канала
Channel layout : L R
Частота : 48,0 КГц
Частота кадров : 31,250 кадров/сек (1536 SPF)
Битовая глубина : 16 бит
Метод сжатия : С потерями
Размер потока : 98,7 Мбайт (11%)
Заголовок : HDrezka Studio
Язык : Russian
ServiceKind/String : Complete Main
Default : Да
Forced : Нет
Аудио #2
Идентификатор : 3
Формат : AAC LC
Формат/Информация : Advanced Audio Codec Low Complexity
Идентификатор кодека : A_AAC-2
Продолжительность : 1 ч. 11 м.
Битрейт : 64,0 Кбит/сек
Каналы : 2 канала
Channel layout : L R
Частота : 48,0 КГц
Частота кадров : 46,875 кадров/сек (1024 SPF)
Метод сжатия : С потерями
Размер потока : 32,9 Мбайт (4%)
Заголовок : Оригинальная дорожка
Язык : English
Default : Нет
Forced : Нет
Текст #1
Идентификатор : 4
Формат : UTF-8
Идентификатор кодека : S_TEXT/UTF8
Идентификатор кодека/Информация : UTF-8 Plain Text
Продолжительность : 1 ч. 6 м.
Битрейт : 21 бит/сек
ElementCount : 175
Размер потока : 10,8 Кбайт (0%)
Заголовок : forced
Язык : Russian
Default : Да
Forced : Нет
Текст #2
Идентификатор : 5
Формат : UTF-8
Идентификатор кодека : S_TEXT/UTF8
Идентификатор кодека/Информация : UTF-8 Plain Text
Продолжительность : 1 ч. 11 м.
Битрейт : 85 бит/сек
ElementCount : 1292
Размер потока : 44,5 Кбайт (0%)
Язык : English
Default : Нет
Forced : Нет

Скриншоты

Скачать CorelDraw

Post 06-Jan-2022 05:10

[Quote]

Игра с силой: История Nintendo / Playing with Power: The Nintendo Story
Год выпуска: 2021
Страна: США
Жанр: Документальный
Продолжительность: ~60 мин
Перевод: Профессиональный (многоголосый закадровый) HDrezka Studio
Оригинальная аудиодорожка: английская
Субтитры: русские (форсированные), английские
Навигация по главам: нет
Режиссер: Джереми Снид / Jeremy Snead
В ролях: Шон Эстин /Sean Astin/, Уил Уитон /Wil Wheaton/, Элисон Хэйслип /Alison Haislip/, Клифф Блежински /Cliff Bleszinski/, Томми Талларико /Tommy Tallarico/, Нолан Бушнелл /Nolan Bushnell/
Описание: Документальный сериал об истории легендарной японской компании Nintendo, совершившей революцию в индустрии видеоигр.
Качество видео: WEBRip | Playing.With.Power.The.Nintendo.Story.S01.1080p.WEBRip.AAC2.0.x264-WHOSNEXT
Формат: MKV
Видео кодек: H.264
Аудио кодек: AC3|AAC
Видео: 1920x1080, 23,976 fps, 3800 kbps
Аудио: AC3, stereo, 192 kbps, 48 kHz (HDrezka Studio)
Аудио: AAC, stereo, 64 kbps, 48 kHz (Оригинальная англоязычная озвучка)
Субтитры: русские (форсированные), английские
Скачать: SAMPLE 50.70MB
Дополнительная информация: Реклама удалена.

Список серий

01. Разыграй свои козыри / Play Your Cards Right
02. Троянский конь / A Trojan Horse
03. Спящий гигант / A Sleeping Giant
04. Инерция / Forward Motion
05. Кнопка перезагрузки / Reset Button

MediaInfo

Формат : Matroska
Версия формата : Version 4
Размер файла : 2,03 Гбайт
Продолжительность : 1 ч. 11 м.
Общий поток : 4051 Кбит/сек
Дата кодирования : UTC 2022-01-05 23:08:48
Программа кодирования : mkvmerge v8.3.0 ('Over the Horizon') 64bit
Библиотека кодирования : libebml v1.3.1 + libmatroska v1.4.2
Видео
Идентификатор : 1
Формат : AVC
Формат/Информация : Advanced Video Codec
Профиль формата : [email protected]
Настройки формата : CABAC / 4 Ref Frames
Параметр CABAC формата : Да
Параметр RefFrames формата : 4 кадра
Идентификатор кодека : V_MPEG4/ISO/AVC
Продолжительность : 1 ч. 11 м.
Битрейт : 3800 Кбит/сек
Ширина : 1920 пикселей
Высота : 1080 пикселей
Соотношение сторон : 16:9
Режим частоты кадров : Постоянный
Частота кадров : 23,976 (24000/1001) кадра/сек
Цветовое пространство : YUV
Субдискретизация насыщенности : 4:2:0
Битовая глубина : 8 бит
Тип развёртки : Прогрессивная
Бит/(Пиксели*Кадры) : 0.076
Размер потока : 1,90 Гбайт (94%)
Библиотека кодирования : x264 core 148
Настройки программы : cabac=1 / ref=2 / deblock=1:0:0 / analyse=0x3:0x113 / me=hex / subme=7 / psy=1 / psy_rd=1.00:0.00 / mixed_ref=1 / me_range=16 / chroma_me=1 / trellis=1 / 8x8dct=1 / cqm=0 / deadzone=21,11 / fast_pskip=1 / chroma_qp_offset=-2 / threads=34 / lookahead_threads=5 / sliced_threads=0 / nr=0 / decimate=1 / interlaced=0 / bluray_compat=0 / constrained_intra=0 / bframes=3 / b_pyramid=2 / b_adapt=1 / b_bias=0 / direct=1 / weightb=1 / open_gop=0 / weightp=2 / keyint=82 / keyint_min=8 / scenecut=0 / intra_refresh=0 / rc_lookahead=40 / rc=abr / mbtree=1 / bitrate=3800 / ratetol=1.0 / qcomp=0.60 / qpmin=0 / qpmax=69 / qpstep=4 / vbv_maxrate=4050 / vbv_bufsize=40500 / nal_hrd=none / filler=0 / ip_ratio=1.40 / aq=1:1.00
Язык : English
Default : Да
Forced : Нет
Цветовой диапазон : Limited
Основные цвета : BT.709
Характеристики трансфера : BT.709
Коэффициенты матрицы : BT.709
Аудио #1
Идентификатор : 2
Формат : AC-3
Формат/Информация : Audio Coding 3
Коммерческое название : Dolby Digital
Идентификатор кодека : A_AC3
Продолжительность : 1 ч. 11 м.
Вид битрейта : Постоянный
Битрейт : 192 Кбит/сек
Каналы : 2 канала
Channel layout : L R
Частота : 48,0 КГц
Частота кадров : 31,250 кадров/сек (1536 SPF)
Битовая глубина : 16 бит
Метод сжатия : С потерями
Размер потока : 98,7 Мбайт (5%)
Заголовок : HDrezka Studio
Язык : Russian
ServiceKind/String : Complete Main
Default : Да
Forced : Нет
Аудио #2
Идентификатор : 3
Формат : AAC LC
Формат/Информация : Advanced Audio Codec Low Complexity
Идентификатор кодека : A_AAC-2
Продолжительность : 1 ч. 11 м.
Битрейт : 64,0 Кбит/сек
Каналы : 2 канала
Channel layout : L R
Частота : 48,0 КГц
Частота кадров : 46,875 кадров/сек (1024 SPF)
Метод сжатия : С потерями
Размер потока : 32,9 Мбайт (2%)
Заголовок : Оригинальная дорожка
Язык : English
Default : Нет
Forced : Нет
Текст #1
Идентификатор : 4
Формат : UTF-8
Идентификатор кодека : S_TEXT/UTF8
Идентификатор кодека/Информация : UTF-8 Plain Text
Продолжительность : 1 ч. 6 м.
Битрейт : 21 бит/сек
ElementCount : 175
Размер потока : 10,8 Кбайт (0%)
Заголовок : forced
Язык : Russian
Default : Да
Forced : Нет
Текст #2
Идентификатор : 5
Формат : UTF-8
Идентификатор кодека : S_TEXT/UTF8
Идентификатор кодека/Информация : UTF-8 Plain Text
Продолжительность : 1 ч. 11 м.
Битрейт : 85 бит/сек
ElementCount : 1292
Размер потока : 44,5 Кбайт (0%)
Язык : English
Default : Нет
Forced : Нет

Скриншоты

Скачать CorelDraw

Post 04-Jan-2022 23:20

[Quote]

Ретрозор Страна: Россия
Жанр: Приключения
Продолжительность серии: 00:30:00
Год выпуска: 2011
Перевод: Не требуется
Русские субтитры: нет
Режиссёр: Ринат Оспанов
Роли озвучивали: Василий Гальперов, Иван Лоев, Дмитрий Кунгуров, Максим Солодилов, Максим Кулаков, Анастасия Кулакова, Леонид Давыдов, Александра Кост, Игорь Суров, Евгений Галуза.
Информация о видео
Качество: WEB-DL 720p
Формат: MP4
Видео: MPEG-4 1280х720 25 кадров/сек Битрейт: 624 Кбит/сек
Аудио: AAC LC 44,1 КГц 2 канала Битрейт: 126 Кбит/сек
Субтитры: отсутствуют
Описание: Сериал представляет собой дайджест старых видеоигр. Герои, между своими приключения вспоминают ту или иную игру и обсуждают её. Обычно в одной серии даётся обзор на три игры из временного диапазона с 1980 до 2000 годов.
Сезон 1: Этот сезон повествует о журналистах, ведущих шоу Ретрозор. На протяжении всего сезона у них в студии вечно случаются те или иные проблемы, которые как-то и решают наши герои.
Сезон 2: Люди совсем обленились и теперь за низ игры проходят специально обученные боты, а люди только смотрят эти прохождения. Но одна группа не справляется с задачами и постоянно терпит неудачи. Из-за этого им перестают доверять прохождение новых игр и отправляют играть только в старьё.
Сезон 3: В мире случился апокалипсис. На город главного героя напали антагонисты из видео игр. Героям предстоит разгадать тайну происхождения этих существ и ликвидировать угрозу.
Сезон 4: Угроза со стороны видеоигровых антагонистов устранена, но теперь героям угрожают протагонисты.
Сезон 5: Этот сезон представляет собой продолжение первого сезона. И на этот раз герои путешествуют по космическим пространствам, посещают новые неизвестные миры.
Рисовка представляет собой пиксельарт. Качество рисовки меняется от сезона к сезону.

Примечание

Несмотря на то, что видео бесплатно доступно на ютубе на канале стопгейм, я выкладываю его тут, потому, что ютуб последнее время стал удалять звук из этих видео, что сильно портит впечатление от просмотра. В этом варианте звук на месте.

Список серий

5 сезон
14.03.2019 19 Ретрозор №65 — Age of Empires, RoboCop vs The Terminator, Rock n’ Roll Racing
31.12.2018 18 Ретрозор №64 — Civilization, «Корсары», Vanguard Bandits
30.11.2018 17 Ретрозор №63 — The Oregon Trail, C&C: Tiberian Sun, Red Faction
Ретрозор Уэс и Флинн побеждают Ретрозор -или наоборот
29.07.2018 16 Ретрозор №62 — Battletoads, Teenage Mutant Ninja Turtles: The Manhattan Missions, Redneck Rampage
31.05.2018 15 Ретрозор №61 — Turok, Digger, Monty Python & the Quest for the Holy Grail
07.04.2018 14 Ретрозор №60 — Chrono Trigger, Rainbow Six: Rogue Spear, The Chronicles of Riddick…
14.02.2018 13 Ретрозор №59 — MediEvil, The Need for Speed, Detroit, Motor City
21.12.2017 12 Ретрозор №58 — Heroes of Might and Magic, The Lost Vikings, Rune
08.11.2017 11 Ретрозор №57 — Dino Crisis, Mega Man, Heavy Metal: F.A.K.K.²…
30.09.2017 10 Ретрозор №56 — Little Big Adventure, Rayman, Ultima I…
30.08.2017 09 Ретрозор №55 — KRAZY IVAN, Phantasmagoria: A Puzzle of Flesh, Neverhood…
23.07.2017 08 Ретрозор №54 — Railroad Tycoon II, The Dig, Lode Runner…
09.06.2017 07 Ретрозор №53 — TRON 2.0, System Shock, System Shock 2
07.05.2017 06 Ретрозор №52 — Master of Orion, Star Wars: Jedi Knight II — Jedi Outcast…
03.04.2017 05 Ретрозор №51 — Alien Trilogy, A Nightmare on Elm Street…
09.03.2017 04 Ретрозор №50 — Street Fighter, Wetlands, Prehistorik Man…
01.02.2017 03 Ретрозор №49 — Chip's Challenge, Duck Tales, E.T…
31.12.2016 02 Ретрозор №48 — Home Alone 2: Lost in New York, Batman Returns, SkiFree…
28.11.2016 01 Ретрозор №47 — Sonic The Hedgehog, Transarctica, Elite…
4 сезон
01.10.2015 20 Ретрозор №46 — Финал Сезона!
30.08.2015 19 Ретрозор №45 — Mad Max, Monster Garage, Knight Rider…
20.05.2015 18 Ретрозор №44 — Legend of Zelda…
10.04.2015 Ретрозор. Therian Saga Quest special
21.03.2015 17 Ретрозор №43 — Microsoft Flight Simulator, Talespin, Pilotwings, Top Gun…
15.02.2015 16 Ретрозор №42
Сезон 3
30.12.2014 15 Ретрозор №41 — Doom2D, Teenage Mutant Ninja Turtles, Tamagotchi…
01.12.2014 14 Ретрозор №40 — Jagged Alliance, Alcatraz: Prison Escape, Theme Hospital…
05.11.2014 13 Ретрозор №39 — Ultimate Mortal Kombat 3, Contra Force, Postal…
22.09.2014 12 Ретрозор №38
Сезон 2
06.06.2014 11 Ретрозор №37
03.04.2014 10 Ретрозор №36
11.03.2014 09 Ретрозор №35
03.02.2014 08 Ретрозор №34
05.01.2014 07 Ретрозор №33
02.12.2013 06 Ретрозор №32
29.10.2013 05 Ретрозор №31
01.10.2013 04 Ретрозор №30
03.09.2013 03 Ретрозор №29
29.07.2013 02 Ретрозор №28
29.06.2013 01 Ретрозор №27
Сезон 1
27.02.2013 14 Ретрозор №26
29.01.2013 13 Ретрозор №25
31.12.2012 12 Ретрозор №24
02.12.2012 11 Ретрозор №23
29.10.2012 10 Ретрозор №22
01.10.2012 09 Ретрозор №21
29.08.2012 08 Ретрозор №20
30.07.2012 07 Ретрозор №19
02.07.2012 06 Ретрозор №18
27.05.2012 05 Ретрозор №17
30.04.2012 04 Ретрозор. №16
02.04.2012 03 Ретрозор. №15
01.03.2012 02 Ретрозор. №14
29.01.2012 01 Ретрозор. №13
31.12.2011 Ретрозор. Новогодний спецвыпуск-поздравление special
30.12.2011 07 Ретрозор. №12
27.11.2011 06 Ретрозор. №11
30.10.2011 05 Ретрозор. №10
30.09.2011 04 Ретрозор. №9
27.08.2011 03 Ретрозор. №8
31.07.2011 02 Ретрозор. №7
25.06.2011 01 Ретрозор. №6
28.05.2011 05 Ретрозор. №5
01.05.2011 04 Ретрозор. №4
01.04.2011 Ретрозор: Спецвыпуск special
26.03.2011 03 Ретрозор. №3
27.02.2011 02 Ретрозор. №2
29.01.2011 01 Ретрозор. №1

Подробные технические данные

ОбщееПолное имя                               : J:\Ретрозор\Сезон 4\1 Ретрозор №42 15.02.2015.mp4Формат                                   : MPEG-4Профиль формата                          : Base Media / Version 2Идентификатор кодека                     : mp42 (isom/mp42)Размер файла                             : 168 МбайтПродолжительность                        : 31 м. 6 с.Режим общего битрейта                    : ПеременныйОбщий поток                              : 753 Кбит/секДата кодирования                         : UTC 2018-10-27 22:34:56Дата пометки                             : UTC 2018-10-27 22:34:56gsst                                     : 0gstd                                     : 1866652
ВидеоИдентификатор : 1Формат : AVCФормат/Информация : Advanced Video CodecПрофиль формата : [email protected]Настройки формата : CABAC / 3 Ref FramesПараметр CABAC формата : ДаПараметр RefFrames формата : 3 кадраИдентификатор кодека : avc1Идентификатор кодека/Информация : Advanced Video CodingПродолжительность : 31 м. 6 с.Битрейт : 624 Кбит/секШирина : 1 280 пикселейВысота : 720 пикселейСоотношение сторон : 16:9Режим частоты кадров : ПостоянныйЧастота кадров : 25,000 кадров/секЦветовое пространство : YUVСубдискретизация насыщенности : 4:2:0Битовая глубина : 8 битТип развёртки : ПрогрессивнаяБит/(Пиксели*Кадры) : 0.027Размер потока : 139 Мбайт (83%)Заголовок : ISO Media file produced by Google Inc. Created on: 10/27/2018.Дата кодирования : UTC 2018-10-27 22:34:56Дата пометки : UTC 2018-10-27 22:34:56Цветовой диапазон : LimitedОсновные цвета : BT.709Характеристики трансфера : BT.709Коэффициенты матрицы : BT.709Codec configuration box : avcC
АудиоИдентификатор : 2Формат : AAC LCФормат/Информация : Advanced Audio Codec Low ComplexityИдентификатор кодека : mp4a-40-2Продолжительность : 31 м. 6 с.Вид битрейта : ПеременныйБитрейт : 126 Кбит/секКаналы : 2 каналаChannel layout : L RЧастота : 44,1 КГцЧастота кадров : 43,066 кадра/сек (1024 SPF)Метод сжатия : С потерямиРазмер потока : 27,9 Мбайт (17%)Заголовок : ISO Media file produced by Google Inc. Created on: 10/27/2018.Дата кодирования : UTC 2018-10-27 22:34:56Дата пометки : UTC 2018-10-27 22:34:56

Скриншоты

Сезон 1

Сезон 2

Сезон 3

Сезон 4

Сезон 5

Скачать CorelDraw

Post 02-Jan-2022 02:50

[Quote]

Включение питания: История Xbox / Power On: The Story of Xbox
Год выпуска: 2021
Страна: США
Жанр: Документальный
Продолжительность: ~40 мин
Перевод: Любительский (одноголосый закадровый) Scaners Games
Оригинальная аудиодорожка: английская
Субтитры: русские, английские
Навигация по главам: нет
Режиссер: Эндрю Штефан / Andrew Stephan
В ролях: Джефф Кили /Geoff Keighley/, Фил Спенсер /Phil Spencer/, Лорн Леннинг /Lorne Lanning/, Род Фергюссон /Rod Fergusson/, Бонни Росс /Bonnie Ross/, Ларри Хриб /Larry Hryb/
Описание: Консоль Xbox могла и не появится. Узнайте о всех причинах этого из шести серий о закулисных событиях, которые возвращают нас к разрозненным истокам появления игровой консоли Microsoft. Это нерассказанная история людей, стоявших за этой консолью и ее проблемами.
Качество: WEB-DLRip [ION10]
Формат: MKV
Видео кодек: H.264
Аудио кодек: AC3
Видео: 720x400, 24,000 fps, 1100 kbps
Аудио: AC3, stereo, 192 kbps, 48 kHz (Scaners Games)
Аудио: AC3, stereo, 192 kbps, 48 kHz (Оригинальная англоязычная озвучка)
Скачать: SAMPLE 15.50MB
Дополнительная информация: Русские субтитры с YouTube канала Xbox. Рекламы нет.

Список серий

01. Отступники / The Renegades
02. Бойня в день святого Валентина / The Valentine's Day Massacre
03. Xbox прокисла / And It Didn't Turn On
04. Клево, а что дальше? / Cool…Now What?
05. Красное кольцо смерти / The Red Ring of Death
06. Телевидение... или не телевидение / TV…Or Not TV

MediaInfo

Формат : Matroska
Версия формата : Version 4
Размер файла : 430 Мбайт
Продолжительность : 41 м. 2 с.
Общий поток : 1465 Кбит/сек
Дата кодирования : UTC 2022-01-01 16:56:10
Программа кодирования : mkvmerge v8.3.0 ('Over the Horizon') 64bit
Библиотека кодирования : libebml v1.3.1 + libmatroska v1.4.2
Видео
Идентификатор : 1
Формат : AVC
Формат/Информация : Advanced Video Codec
Профиль формата : [email protected]
Настройки формата : CABAC / 5 Ref Frames
Параметр CABAC формата : Да
Параметр RefFrames формата : 5 кадров
Идентификатор кодека : V_MPEG4/ISO/AVC
Продолжительность : 41 м. 2 с.
Битрейт : 1100 Кбит/сек
Ширина : 720 пикселей
Высота : 400 пикселей
Соотношение сторон : 16:9
Режим частоты кадров : Постоянный
Частота кадров : 24,000 кадра/сек
Цветовое пространство : YUV
Субдискретизация насыщенности : 4:2:0
Битовая глубина : 8 бит
Тип развёртки : Прогрессивная
Бит/(Пиксели*Кадры) : 0.159
Размер потока : 317 Мбайт (74%)
Библиотека кодирования : x264 core 148 r2795M aaa9aa8
Настройки программы : cabac=1 / ref=5 / deblock=1:-1:-1 / analyse=0x3:0x113 / me=umh / subme=9 / psy=1 / psy_rd=1.00:0.15 / mixed_ref=1 / me_range=16 / chroma_me=1 / trellis=2 / 8x8dct=1 / cqm=0 / deadzone=21,11 / fast_pskip=1 / chroma_qp_offset=-3 / threads=24 / lookahead_threads=2 / sliced_threads=0 / nr=0 / decimate=1 / interlaced=0 / bluray_compat=0 / constrained_intra=0 / bframes=3 / b_pyramid=2 / b_adapt=2 / b_bias=0 / direct=3 / weightb=1 / open_gop=0 / weightp=2 / keyint=250 / keyint_min=24 / scenecut=40 / intra_refresh=0 / rc_lookahead=50 / rc=abr / mbtree=1 / bitrate=1100 / ratetol=1.0 / qcomp=0.60 / qpmin=0 / qpmax=69 / qpstep=4 / ip_ratio=1.40 / aq=1:1.00
Язык : English
Default : Да
Forced : Нет
Аудио #1
Идентификатор : 2
Формат : AC-3
Формат/Информация : Audio Coding 3
Коммерческое название : Dolby Digital
Идентификатор кодека : A_AC3
Продолжительность : 41 м. 2 с.
Вид битрейта : Постоянный
Битрейт : 192 Кбит/сек
Каналы : 2 канала
Channel layout : L R
Частота : 48,0 КГц
Частота кадров : 31,250 кадров/сек (1536 SPF)
Битовая глубина : 16 бит
Метод сжатия : С потерями
Размер потока : 56,4 Мбайт (13%)
Заголовок : Scaners Games
Язык : Russian
ServiceKind/String : Complete Main
Default : Да
Forced : Нет
Аудио #2
Идентификатор : 3
Формат : AC-3
Формат/Информация : Audio Coding 3
Коммерческое название : Dolby Digital
Идентификатор кодека : A_AC3
Продолжительность : 41 м. 2 с.
Вид битрейта : Постоянный
Битрейт : 192 Кбит/сек
Каналы : 2 канала
Channel layout : L R
Частота : 48,0 КГц
Частота кадров : 31,250 кадров/сек (1536 SPF)
Битовая глубина : 16 бит
Метод сжатия : С потерями
Размер потока : 56,4 Мбайт (13%)
Заголовок : Оригинальная дорожка
Язык : English
ServiceKind/String : Complete Main
Default : Нет
Forced : Нет
Текст #1
Идентификатор : 4
Формат : UTF-8
Идентификатор кодека : S_TEXT/UTF8
Идентификатор кодека/Информация : UTF-8 Plain Text
Продолжительность : 38 м. 43 с.
Битрейт : 176 бит/сек
ElementCount : 714
Размер потока : 50,1 Кбайт (0%)
Заголовок : Xbox
Язык : Russian
Default : Нет
Forced : Нет
Текст #2
Идентификатор : 5
Формат : UTF-8
Идентификатор кодека : S_TEXT/UTF8
Идентификатор кодека/Информация : UTF-8 Plain Text
Продолжительность : 38 м. 43 с.
Битрейт : 121 бит/сек
ElementCount : 720
Размер потока : 34,4 Кбайт (0%)
Язык : English
Default : Нет
Forced : Нет

Скриншоты

Скачать CorelDraw

Post 02-Jan-2022 02:50

[Quote]

Включение питания: История Xbox / Power On: The Story of Xbox
Год выпуска: 2021
Страна: США
Жанр: Документальный
Продолжительность: ~40 мин
Перевод: Любительский (одноголосый закадровый) Scaners Games
Оригинальная аудиодорожка: английская
Субтитры: русские, английские
Навигация по главам: нет
Режиссер: Эндрю Штефан / Andrew Stephan
В ролях: Джефф Кили /Geoff Keighley/, Фил Спенсер /Phil Spencer/, Лорн Леннинг /Lorne Lanning/, Род Фергюссон /Rod Fergusson/, Бонни Росс /Bonnie Ross/, Ларри Хриб /Larry Hryb/
Описание: Консоль Xbox могла и не появится. Узнайте о всех причинах этого из шести серий о закулисных событиях, которые возвращают нас к разрозненным истокам появления игровой консоли Microsoft. Это нерассказанная история людей, стоявших за этой консолью и ее проблемами.
Качество видео: WEB-DL [WELP]
Формат: MKV
Видео кодек: H.264
Аудио кодек: AC3|E-AC3
Видео: 1280x720, 24,000 fps, 4115 kbps
Аудио: AC3, stereo, 192 kbps, 48 kHz (Scaners Games)
Аудио: E-AC3, stereo, 224 kbps, 48 kHz (Оригинальная англоязычная озвучка)
Скачать: SAMPLE 44.80MB
Дополнительная информация: Русские субтитры с YouTube канала Xbox. Рекламы нет.

Список серий

01. Отступники / The Renegades
02. Бойня в день святого Валентина / The Valentine's Day Massacre
03. Xbox прокисла / And It Didn't Turn On
04. Клево, а что дальше? / Cool…Now What?
05. Красное кольцо смерти / The Red Ring of Death
06. Телевидение... или не телевидение / TV…Or Not TV

MediaInfo

Формат : Matroska
Версия формата : Version 4
Размер файла : 1,30 Гбайт
Продолжительность : 41 м. 2 с.
Общий поток : 4534 Кбит/сек
Дата кодирования : UTC 2022-01-01 17:30:28
Программа кодирования : mkvmerge v8.3.0 ('Over the Horizon') 64bit
Библиотека кодирования : libebml v1.3.1 + libmatroska v1.4.2
Видео
Идентификатор : 1
Формат : AVC
Формат/Информация : Advanced Video Codec
Профиль формата : [email protected]
Настройки формата : CABAC / 4 Ref Frames
Параметр CABAC формата : Да
Параметр RefFrames формата : 4 кадра
Идентификатор кодека : V_MPEG4/ISO/AVC
Продолжительность : 41 м. 2 с.
Вид битрейта : Постоянный
Битрейт : 4115 Кбит/сек
Номинальный битрейт : 6000 Кбит/сек
Ширина : 1280 пикселей
Высота : 720 пикселей
Соотношение сторон : 16:9
Режим частоты кадров : Постоянный
Частота кадров : 24,000 кадра/сек
Цветовое пространство : YUV
Субдискретизация насыщенности : 4:2:0
Битовая глубина : 8 бит
Тип развёртки : Прогрессивная
Бит/(Пиксели*Кадры) : 0.186
Размер потока : 1,18 Гбайт (91%)
Язык : English
Default : Да
Forced : Нет
Цветовой диапазон : Limited
Основные цвета : BT.709
Характеристики трансфера : BT.709
Коэффициенты матрицы : BT.709
Аудио #1
Идентификатор : 2
Формат : AC-3
Формат/Информация : Audio Coding 3
Коммерческое название : Dolby Digital
Идентификатор кодека : A_AC3
Продолжительность : 41 м. 2 с.
Вид битрейта : Постоянный
Битрейт : 192 Кбит/сек
Каналы : 2 канала
Channel layout : L R
Частота : 48,0 КГц
Частота кадров : 31,250 кадров/сек (1536 SPF)
Битовая глубина : 16 бит
Метод сжатия : С потерями
Размер потока : 56,4 Мбайт (4%)
Заголовок : Scaners Games
Язык : Russian
ServiceKind/String : Complete Main
Default : Да
Forced : Нет
Аудио #2
Идентификатор : 3
Формат : E-AC-3
Формат/Информация : Enhanced AC-3
Коммерческое название : Dolby Digital Plus
Идентификатор кодека : A_EAC3
Продолжительность : 41 м. 2 с.
Вид битрейта : Постоянный
Битрейт : 224 Кбит/сек
Каналы : 2 канала
Channel layout : L R
Частота : 48,0 КГц
Частота кадров : 31,250 кадров/сек (1536 SPF)
Метод сжатия : С потерями
Размер потока : 65,8 Мбайт (5%)
Заголовок : Оригинальная дорожка
Язык : English
ServiceKind/String : Complete Main
Default : Нет
Forced : Нет
Текст #1
Идентификатор : 4
Формат : UTF-8
Идентификатор кодека : S_TEXT/UTF8
Идентификатор кодека/Информация : UTF-8 Plain Text
Продолжительность : 38 м. 43 с.
Битрейт : 176 бит/сек
ElementCount : 714
Размер потока : 50,1 Кбайт (0%)
Заголовок : Xbox
Язык : Russian
Default : Нет
Forced : Нет
Текст #2
Идентификатор : 5
Формат : UTF-8
Идентификатор кодека : S_TEXT/UTF8
Идентификатор кодека/Информация : UTF-8 Plain Text
Продолжительность : 38 м. 43 с.
Битрейт : 121 бит/сек
ElementCount : 720
Размер потока : 34,4 Кбайт (0%)
Язык : English
Default : Нет
Forced : Нет

Скриншоты

Скачать CorelDraw

Post 02-Jan-2022 02:50

[Quote]

Включение питания: История Xbox / Power On: The Story of Xbox
Год выпуска: 2021
Страна: США
Жанр: Документальный
Продолжительность: ~40 мин
Перевод: Любительский (одноголосый закадровый) Scaners Games
Оригинальная аудиодорожка: английская
Субтитры: русские, английские
Навигация по главам: нет
Режиссер: Эндрю Штефан / Andrew Stephan
В ролях: Джефф Кили /Geoff Keighley/, Фил Спенсер /Phil Spencer/, Лорн Леннинг /Lorne Lanning/, Род Фергюссон /Rod Fergusson/, Бонни Росс /Bonnie Ross/, Ларри Хриб /Larry Hryb/
Описание: Консоль Xbox могла и не появится. Узнайте о всех причинах этого из шести серий о закулисных событиях, которые возвращают нас к разрозненным истокам появления игровой консоли Microsoft. Это нерассказанная история людей, стоявших за этой консолью и ее проблемами.
Качество видео: WEB-DL [WELP]
Формат: MKV
Видео кодек: H.264
Аудио кодек: AC3|E-AC3
Видео: 1920x1080, 24,000 fps, 7659 kbps
Аудио: AC3, stereo, 192 kbps, 48 kHz (Scaners Games)
Аудио: E-AC3, stereo, 224 kbps, 48 kHz (Оригинальная англоязычная озвучка)
Скачать: SAMPLE 84.30MB
Дополнительная информация: Русские субтитры с YouTube канала Xbox. Рекламы нет.

Список серий

01. Отступники / The Renegades
02. Бойня в день святого Валентина / The Valentine's Day Massacre
03. Xbox прокисла / And It Didn't Turn On
04. Клево, а что дальше? / Cool…Now What?
05. Красное кольцо смерти / The Red Ring of Death
06. Телевидение... или не телевидение / TV…Or Not TV

MediaInfo

Формат : Matroska
Версия формата : Version 4
Размер файла : 2,32 Гбайт
Продолжительность : 41 м. 2 с.
Общий поток : 8077 Кбит/сек
Дата кодирования : UTC 2022-01-01 18:02:00
Программа кодирования : mkvmerge v8.3.0 ('Over the Horizon') 64bit
Библиотека кодирования : libebml v1.3.1 + libmatroska v1.4.2
Видео
Идентификатор : 1
Формат : AVC
Формат/Информация : Advanced Video Codec
Профиль формата : [email protected]
Настройки формата : CABAC / 4 Ref Frames
Параметр CABAC формата : Да
Параметр RefFrames формата : 4 кадра
Идентификатор кодека : V_MPEG4/ISO/AVC
Продолжительность : 41 м. 2 с.
Вид битрейта : Постоянный
Битрейт : 7659 Кбит/сек
Номинальный битрейт : 10000 Кбит/сек
Ширина : 1920 пикселей
Высота : 1080 пикселей
Соотношение сторон : 16:9
Режим частоты кадров : Постоянный
Частота кадров : 24,000 кадра/сек
Цветовое пространство : YUV
Субдискретизация насыщенности : 4:2:0
Битовая глубина : 8 бит
Тип развёртки : Прогрессивная
Бит/(Пиксели*Кадры) : 0.154
Размер потока : 2,20 Гбайт (95%)
Язык : English
Default : Да
Forced : Нет
Цветовой диапазон : Limited
Основные цвета : BT.709
Характеристики трансфера : BT.709
Коэффициенты матрицы : BT.709
Аудио #1
Идентификатор : 2
Формат : AC-3
Формат/Информация : Audio Coding 3
Коммерческое название : Dolby Digital
Идентификатор кодека : A_AC3
Продолжительность : 41 м. 2 с.
Вид битрейта : Постоянный
Битрейт : 192 Кбит/сек
Каналы : 2 канала
Channel layout : L R
Частота : 48,0 КГц
Частота кадров : 31,250 кадров/сек (1536 SPF)
Битовая глубина : 16 бит
Метод сжатия : С потерями
Размер потока : 56,4 Мбайт (2%)
Заголовок : Scaners Games
Язык : Russian
ServiceKind/String : Complete Main
Default : Да
Forced : Нет
Аудио #2
Идентификатор : 3
Формат : E-AC-3
Формат/Информация : Enhanced AC-3
Коммерческое название : Dolby Digital Plus
Идентификатор кодека : A_EAC3
Продолжительность : 41 м. 2 с.
Вид битрейта : Постоянный
Битрейт : 224 Кбит/сек
Каналы : 2 канала
Channel layout : L R
Частота : 48,0 КГц
Частота кадров : 31,250 кадров/сек (1536 SPF)
Метод сжатия : С потерями
Размер потока : 65,8 Мбайт (3%)
Заголовок : Оригинальная дорожка
Язык : English
ServiceKind/String : Complete Main
Default : Нет
Forced : Нет
Текст #1
Идентификатор : 4
Формат : UTF-8
Идентификатор кодека : S_TEXT/UTF8
Идентификатор кодека/Информация : UTF-8 Plain Text
Продолжительность : 38 м. 43 с.
Битрейт : 176 бит/сек
ElementCount : 714
Размер потока : 50,1 Кбайт (0%)
Заголовок : Xbox
Язык : Russian
Default : Нет
Forced : Нет
Текст #2
Идентификатор : 5
Формат : UTF-8
Идентификатор кодека : S_TEXT/UTF8
Идентификатор кодека/Информация : UTF-8 Plain Text
Продолжительность : 38 м. 43 с.
Битрейт : 121 бит/сек
ElementCount : 720
Размер потока : 34,4 Кбайт (0%)
Язык : English
Default : Нет
Forced : Нет

Скриншоты

Скачать Photoshop

Post 28-Dec-2021 09:15

[Quote]

Post Mortem (Видео-прохождение) Remaster Продолжительность: 03:05:23
Озвучка: Русский (Профессиональный. Полное дублирование)
Субтитры: Нет
Описание: Видео-прохождение игры Post Mortem.
Действие игры разворачивается в Париже XX века. Американский детектив в отставке, МакФерсон, нанят некоей Софией Блэйк, чтобы узнать, кто убил её сестру и зятя. Обезглавленная парочка была найдена в одном из самых дорогих отелей Парижа. Создавалось ощущение, что перед убийством был проведён какой-то ритуальный обряд. Вскоре МакФерсон узнает, что за всем этим стоит группа религиозных фанатиков.
Доп. Информация 1: Видео материал был создан мной. (Alins)
Доп. Информация 2: Видео обработано через Topaz Video Enhance AI 2.6.1 ---[url=tracker.php?rid=952991]Alins[/url]---. Это программа которая использует искусственный интеллект для увеличения разрешения и улучшения видео.
Формат: MP4
Видео: MPEG4 Video (H265) [HVC1] 1920x1080 30.00fps 7553Kbps
Аудио: AAC 48000Hz 128Kbps

Скриншоты

-

Still Life

Still Life 1
Still Life 2

Скачать CorelDraw

Post 28-Dec-2021 09:15

[Quote]

Grand Theft Auto V Debut Trailer (Russian)
Год выпуска: 2011
Разработчик: Rockstar Games
Продолжительность: 00:01:24
Субтитры: нет
Язык озвучки : русский
Качество: HD
Формат: MOV
Информация о видео: AVC, 1280x720p, 14.1 Mbps, 29.970 fps
Информация о аудио: AAC, 160 Kbps, 2 ch, 44.1 KHz
Описание: И вот настал тот долгожданный момент которого мы так долго ждали! Первый трейлер GTA 5 уже можно увидеть. Прежде чем просмотреть видео, я хотел бы немного вам рассказать что нас ожидает в игре? - это новая совершенная графика которой может позавидовать всеми нами любимая GTA 4, так же новая анимация телодвижений персонажей, абсолютно новые возможности которых ранее не было в игре. Чтож, теперь вы можете посмотреть трейлер сами и насладиться его качеством и интересными моментами геймплея.

Скриншоты

Скачать CorelDraw

Post 28-Dec-2021 09:15

[Quote]

Resident Evil Dead Aim - The Movie [Remaster]Продолжительность: 0:45:16
Озвучка: Английский
Субтитры: Русские (DOMUHUK)
Описание: Фильм по игре Resident Evil Dead Aim
2002 год. Бывший сотрудник Амбреллы решает отомстить корпорации за то, что та обвинила его в утечке Т-вируса в особняке. Он захватывает круизный лайнер, принадлежащий Амбрелле, а затем выдвигает США и Китаю требования по выплате 5 млрд долларов. В случае отказа он вознамеривается выпустить ракеты с украденным им Т-вирусом. В попытке предотвратить терракт отдел USSTRATCOM (в котором так же работал Леон С. Кеннеди) отправляет на лайнер своего агента Брюса МакГиверна.
Доп. Информация 1: Ролики совмещены с геймплейным видео, образуя единую цельную картину событий игры. Полностью записано и срежиссировано [url=tracker.php?rid=1508631]DOMUHUK[/url] aka Coldshade, перевод, субтитры и тайминг так же [url=tracker.php?rid=1508631]DOMUHUK[/url]. Записано через эмулятор PCSX2 с эмуляцией пистолета GunCom2
Доп. Информация 2 Видео обработано через Topaz Video Enhance AI 2.6.1 ---[url=tracker.php?rid=952991]Alins[/url]---. Это программа которая использует искусственный интеллект для увеличения разрешения и улучшения видео.
Видео материал не подвергался изменениям, он соответствует этой раздаче.
Формат: MP4
Видео кодек: MPEG4 Video (H265) [HVC1] 1920x1080 29.97fps 7456Kbps
Аудио кодек: AAC 48000Hz 128Kbps -

Ещё на тему Resident Evil

Resident Evil 0
Resident Evil 1. Remake
Resident Evil 2. Remake
Resident Evil 2 - The Movie (Два фильма по обоим сценариям) Remaster
Resident Evil. Outbreak File 1 & File 2
Resident Evil 3. Remake
Resident Evil 3 с ножом и пистолетом
Resident Evil 3
Resident Evil. Code Veronica X
Resident Evil 4 HD [Remaster]
Resident Evil 4. Incubate
Resident Evil. Revelations
Resident Evil. Revelations 2
Resident Evil 5
Resident Evil 6
Resident Evil 7 & Beginning Hour
Resident Evil. Dead Aim
Resident Evil. Pachislot
Resident Evil. Degeneration
Resident Evil. Damnation
Resident Evil. Vendetta
Resident Evil. Umbrella Chronicles
Resident Evil. Darkside Chronicles
Resident Evil. Operation Raccoon City
Обитель зла
Resident Evil 4D

Скачать CorelDraw

Post 28-Dec-2021 09:15

[Quote]

Коллекция видеороликов от Василия Забубенского
Годы выпуска: 2010-2013
Создатель видео: Василий Забубенский
Количество роликов: 83 ролика
Качество: WebRip
Формат: MP4, FLV
Информация о видео: H264, Flash Video
Информация об аудио: MP3, AAC-Описание:
Обзорщик видеоигр, известный своей объективностью, оригинальностью и уникальным чувством юмора.
В данной раздаче представлены все его обзоры на игры, обзор на фильм, летсплеи, анонсы, подкасты, переводы, хит-парады и пародии.
Значимые события:

29.01.2010

В группе ВКонтакте, посвященной серии игр "Gothic", было опубликовано первое видео Забубенского - провокационный обзор на игру "Gothic 2", который наделал много шума. На следующий же день вышла серьезная версия обзора с противоположным мнением. На странице обзорщика начала формироваться фан-база, преимущественно состоящая из поклонников игры.

05.03.2010

Создана официальная группа ВКонтакте.

01.04.2010

Первое появление Васи перед камерой.

09.04.2010

Выпущен первый обзор пародийного образа Васи - Большого Хера.

21.02.2011

Некий Андрей Кравцов опубликовал в группе ВКонтакте, посвященной игре "Gothic", обзор Деда Максима на Risen. Забубенский в комментариях похвалил видео и поделился им со своими фанатами. Позже была создана группа Деда Максима, где он правдоподобно и забавно отвечал на вопросы. Не раз высказывались подозрения, что Дед - новый образ Василия, и, через некоторое время, он официально это подтвердил.

26.02.2012

Вася Забубенский впервые выпустил видео в HD качестве.

01.04.2012

В честь своего дня рождения, Василий сделал самый большой и детальный видеообзор за всю историю рунета.

31.08.2013

Василий Забубенский оставил следующее сообщение на стене своей страницы ВКонтакте:
Тянуть кота за яйца больше не имеет смысла, поэтому пора уже объявить наконец о том, что обзоров от меня отныне можно не ждать.
Партнерка с YouTube была благополучно проёбана, с "Геймпилотом" не срослось (полностью из-за того, что я ничего не делал), а посещаемость в группе резко упала.
Тут дело в том, что я банально потерял интерес не только к обзорам и критике игор, но и к самим играм, а так же непосредственно к игровой индустрии в целом. Так какой же смысл мучить себя и вас? У меня действительно было много идей, но реализовать их мешали отсутствие времени и желания.
Всё меняется и всё заканчивается, к сожалению.
Кстати, я вполне могу допустить, что через какое-то время (год, два, пять лет) я вернусь к своему хобби и вновь начну <~~> какие-нибудь видосы на игровую/может киношную тематику. Но это будет уже не Вася Забубенский, это будет совсем другой человек, работающий в другом стиле. Может нихуя из этого не выйти, но мне как-то похуй, такие дела.
Группа (http://vk.com/zabybenskiyclub) - большая и было решено её продать, все вопросы по этому поводу к Устинову: http://vk.com/vitaliyustinov
Спасибо за всё, было круто.
Всегда Ваш, <~~> и говнарь - Василий Забубенский.
Спустя некоторое время, он удалил свою страницу. Группа с более чем 23 000 участников была продана и все обзоры удалили из видеозаписей.
-Скриншоты и тех. данные:

Обзоры игрулек

Обзор Готики 2 - Ночь Ворона

Video: Flash Video 1 320x240 25fps 261kbps
Audio: MPEG Audio Layer 3 22050Hz stereo 69kbps

Обзор игры S.T.A.L.K.E.R.

Video: Flash Video 1 320x240 25fps 257kbps
Audio: MP3 22050Hz stereo 71kbps

Видеообзор игры Fallout 3

Video: MPEG4 Video (H264) 480x368 (4:3) 25fps
Audio: AAC 44100Hz stereo
Дата выпуска: 15.02.2010

Видеообзор игры The Suffering

Video: MPEG4 Video (H264) 480x368 (4:3) 25fps
Audio: AAC 44100Hz stereo
Дата выпуска: 18.02.2010

Видеообзор игры Prince of Persia - The Sands of Time

Video: MPEG4 Video (H264) 480x368 (4:3) 29fps
Audio: AAC 44100Hz stereo
Дата выпуска: 26.02.2010

Обзор на самую популярную игру современности

Video: MPEG4 Video (H264) 480x368 (4:3) 29fps
Audio: AAC 22050Hz stereo
Дата выпуска: 04.03.2010

Видеообзор игры Prince of Persia - Warrior Within

Video: MPEG4 Video (H264) 480x368 (4:3) 29fps
Audio: AAC 22050Hz stereo
Дата выпуска: 09.03.2010

Видеообзор игры Resident Evil 5

Video: MPEG4 Video (H264) 480x368 (4:3) 25fps
Audio: AAC 44100Hz stereo
Дата выпуска: 17.03.2010

Обзор игры The Witcher

Video: MPEG4 Video (H264) 480x360 25fps 462kbps
Audio: MPEG Audio Layer 3 44100Hz stereo 127kbps
Дата выпуска: 29.03.2010

Обзор игры Lost - Via Domus

Video: MPEG4 Video (H264) 480x360 25fps 428kbps
Audio: MPEG Audio Layer 3 44100Hz stereo 128kbps
Дата выпуска: 01.04.2010

Обзор Grand Theft Auto 4

Video: MPEG4 Video (H264) 480x368 (4:3) 29fps
Audio: AAC 44100Hz stereo
Дата выпуска: 22.04.2010

Обзор игры Splinter Cell Conviction

Video: MPEG4 Video (H264) 640x480 25fps 739kbps
Audio: MPEG Audio Layer 3 44100Hz stereo 159kbps
Дата выпуска: 03.05.2010

Обзор Assassin's Creed

Video: MPEG4 Video (H264) 640x480 25fps 642kbps
Audio: AAC 44100Hz stereo 93kbps
Дата выпуска: 28.05.2010

Видеообзор игры МОченосец

Video: MPEG4 Video (H264) 640x480 25fps 676kbps
Audio: AAC 44100Hz stereo 128kbps
Дата выпуска: 06.08.2010

Обзор Postal 2

Video: MPEG4 Video (H264) 640x480 25fps 582kbps
Audio: AAC 44100Hz stereo 127kbps
Дата выпуска: 16.10.2010

Обзор Gothic 4 - Arcania

Video: MPEG4 Video (H264) 640x480 29.97fps 724kbps
Audio: AAC 44100Hz stereo 131kbps
Дата выпуска: 11.11.2010

Обзор Call of Duty - Black Ops

Video: MPEG4 Video (H264) 640x480 30fps 728kbps
Audio: AAC 44100Hz stereo 131kbps
Дата выпуска: 05.12.2010

Обзор-сравнение Medal of Honor и Battlefield - Bad Company 2

Video: MPEG4 Video (H264) 640x480 29.97fps 837kbps
Audio: AAC 44100Hz stereo 131kbps
Дата выпуска: 30.12.2010

Обзор Dead Space

Video: MPEG4 Video (H264) 640x480 29.917fps 754kbps
Audio: AAC 44100Hz stereo 99kbps
Дата выпуска: 13.02.2011

Обзор игры Bulletstorm

Video: MPEG4 Video (H264) 720x480 29.917fps 897kbps
Audio: AAC 44100Hz stereo 131kbps
Дата выпуска: 07.03.2011

Обзор Assassin's Creed - Brotherhood

Video: MPEG4 Video (H264) 640x480 29.917fps 742kbps
Audio: AAC 44100Hz stereo 130kbps
Дата выпуска: 03.05.2011

Обзор Crysis 2

Video: MPEG4 Video (H264) 640x480 29.917fps 863kbps
Audio: AAC 44100Hz stereo 131kbps
Дата выпуска: 23.05.2011

Обзор Duke Nukem Forever

Video: MPEG4 Video (H264) 720x480 29.97fps 662kbps
Audio: AAC 44100Hz stereo 131kbps
Дата выпуска: 19.08.2011

Обзор Dead Island

Video: MPEG4 Video (H264) 732x480 30fps 750kbps [Video]
Audio: AAC 44100Hz stereo 131kbps [Audio]
Дата выпуска: 16.09.2011

Обзор Batman - Arkham Asylum + история персонажа

Video: MPEG4 Video (H264) 720x480 30fps 595kbps
Audio: AAC 44100Hz stereo 131kbps
Дата выпуска: 12.02.2012

Обзор The Darkness 2

Video: MPEG4 Video (H264) 1280x720 29.97fps 2489kbps
Audio: AAC 44100Hz stereo 151kbps
Дата выпуска: 26.02.2012

Mass Effect 3. Большой и детальный обзор от Забубенского

Video: MPEG4 Video (H264) 1280x720 25fps 2143kbps
Audio: AAC 44100Hz stereo 151kbps
Дата выпуска: 01.04.2012

Обзор Max Payne 3

Video: MPEG4 Video (H264) 1280x720 25fps 2925kbps
Audio: AAC 44100Hz stereo 151kbps
Дата выпуска: 18.06.2012

Обзор Sleeping Dogs

Video: MPEG4 Video (H264) 1280x720 29.97fps 2647kbps
Audio: AAC 44100Hz stereo 192kbps
Дата выпуска: 29.08.2012

Обзор Hitman - Absolution

Video: MPEG4 Video (H264) 1280x720 29.97fps 2614kbps
Audio: AAC 44100Hz stereo 192kbps
Дата выпуска: 20.01.2013

Обзор Spec Ops - The Line

Video: MPEG4 Video (H264) 1280x720 29.97fps 2850kbps
Audio: AAC 44100Hz stereo 192kbps
Дата выпуска: 25.01.2013

Обзор Call of Duty - Black Ops 2

Video: MPEG4 Video (H264) 1280x720 25fps 2720kbps
Audio: AAC 44100Hz stereo 191kbps
Дата выпуска: 23.04.2013

Старые обзоры

Обзор Готики 2

Video: Flash Video 1 320x240 25fps 247kbps
Audio: MP3 22050Hz stereo 70kbps
Дата выпуска: 29.01.2010

Положительный обзор Готики 2

Video: Flash Video 1 320x240 25fps 246kbps
Audio: MP3 22050Hz stereo 91kbps
Дата выпуска: 30.01.2010

Справедливый обзор Gothic 3

Video: Flash Video 1 320x240 25fps 251kbps
Audio: MP3 22050Hz stereo 90kbps
Дата выпуска: 02.02.2010

Объективный обзор Risen

Video: Flash Video 1 320x240 25fps 249kbps
Audio: MP3 22050Hz stereo 90kbps
Дата выпуска: 04.02.2010

Правдивый обзор Gothic 3 - Forsaken Gods

Video: MPEG4 Video (H264) 320x240 25fps 155kbps
Audio: AAC 44100Hz stereo 127kbps
Дата выпуска: 05.02.2010

Обзор игры TES4 - Oblivion. Часть 1

Video: Flash Video 1 320x240 25fps 254kbps
Audio: MP3 22050Hz stereo 84kbps
Дата выпуска: 07.02.2010

Обзор игры TES4 - Oblivion. Часть 2

Video: Flash Video 1 320x240 25fps 252kbps
Audio: MP3 22050Hz stereo 91kbps
Дата выпуска: 07.02.2010

Обзор игры Параграф 78

Video: Flash Video 1 320x240 25fps 256kbps
Audio: MP3 22050Hz stereo 82kbps

Ремейки старых обзоров

Обзор Готики 3 - Отвергнутые боги (Re-Make&#41;

Video: MPEG4 Video (H264) 480x360 30fps 587kbps
Audio: AAC 44100Hz stereo 95kbps
Дата выпуска: 27.09.2011

Обзор Grand Theft Auto 4 (Re-Make&#41;

Video: MPEG4 Video (H264) 640x480 30fps 651kbps
Audio: AAC 44100Hz stereo 131kbps
Дата выпуска: 13.10.2011

Обзор Stalker - Shadow of Chernobyl (Re-Make&#41;

Video: MPEG4 Video (H264) 480x360 30fps 475kbps
Audio: AAC 44100Hz stereo 95kbps
Дата выпуска: 13.02.2012

Bloodline - линия крови (Re-Make для Game Pilot&#41;

Video: MPEG4 Video (H264) 1280x720 25fps 1879kbps
Audio: AAC 44100Hz stereo 192kbps
Дата выпуска: 12.05.2013

Анатомия игр

Выпуск 1. Обзор Assassin's Creed 2

Video: MPEG4 Video (H264) 640x480 25fps 625kbps
Audio: AAC 44100Hz stereo 127kbps
Дата выпуска: 26.06.2010

Выпуск 2. Обзор Prince of Persia - The Two Thrones

Video: MPEG4 Video (H264) 640x480 25fps 640kbps
Audio: AAC 44100Hz stereo 127kbps
Дата выпуска: 14.07.2010

Выпуск 3. Обзор Prototype

Video: MPEG4 Video (H264) 640x480 25fps 676kbps
Audio: AAC 44100Hz stereo 127kbps
Дата выпуска: 01.08.2010

Немыльное киNцо

Эпизод 1

Video: MPEG4 Video (H264) 1280x720 25fps 1761kbps
Audio: AAC 44100Hz stereo 127kbps
Дата выпуска: 08.05.2012

Совместные обзоры

Совместный обзор Забубенского и Макса Сайлера

Video: Flash Video 1 320x240 25fps 256kbps
Audio: MP3 22050Hz stereo 92kbps

Летсплеи

Летсплей угарной трэш-игры от Василия Забубенского

Video: Flash Video 1 320x240 25fps 258kbps
Audio: MP3 22050Hz stereo 85kbps
Дата выпуска: 05.03.2010

Летсплей Alpha Protocol

Video: MPEG4 Video (H264) 640x480 25fps 692kbps
Audio: AAC 44100Hz stereo 125kbps

Хит-парады

Топ 10 самых сексуальных актрис Голливуда от Васи Забубенского

Video: Flash Video 1 320x240 25fps 247kbps
Audio: MP3 22050Hz stereo 87kbps
Дата выпуска: 19.03.2010

Хит-парад 15 лучших игр 2010. Часть 1

Video: MPEG4 Video (H264) 640x480 29.97fps 870kbps
Audio: AAC 44100Hz stereo 131kbps
Дата выпуска: 19.01.2011

Хит-парад 15 лучших игр 2010. Часть 2

Video: MPEG4 Video (H264) 640x480 29.97fps 757kbps
Audio: AAC 44100Hz stereo 131kbps
Дата выпуска: 19.01.2011

Переводы

Американский пирог. Отрывок 1

Video: MPEG4 Video (H264) 640x360 (107:60) 25fps 467kbps
Audio: AAC 44100Hz stereo 128kbps
Дата выпуска: 30.06.2010

Американский пирог. Отрывок 2

Video: MPEG4 Video (H264) 640x360 (107:60) 25fps 446kbps
Audio: AAC 44100Hz stereo 127kbps
Дата выпуска: 03.07.2010

Batman - Arkham City в переводе Забубенского. Часть 1

Video: MPEG4 Video (H264) 1280x720 25fps 2215kbps
Audio: AAC 44100Hz stereo 151kbps
Дата выпуска: 13.04.2012

Вспомнить всё (2012&#41;. Трейлер в переводе Забубенского

Video: MPEG4 Video (H264) 1280x720 29.97fps 2089kbps
Audio: AAC 44100Hz stereo 149kbps
Дата выпуска: 23.06.2012

Пародии

Обзор игры Кал оф Дьюти 4 Модерн Варфарэ от Большого Хера

Video: MPEG4 Video (H264) 640x480 29.917fps 724kbps
Audio: AAC 44100Hz stereo 131kbps
Дата выпуска: 29.04.2010

Обзор Мафиа Зе Сити оф Лост Хэавен от Большого Хера

Video: MPEG4 Video (H264) 640x480 29.917fps 780kbps
Audio: AAC 44100Hz stereo 131kbps
Дата выпуска: 06.05.2010

Обзор Жаст Каузе от Большого Хера

Video: MPEG4 Video (H264) 640x480 29.97fps 756kbps
Audio: AAC 44100Hz stereo 130kbps
Дата выпуска: 25.07.2010

Пародия на Озона

Video: MPEG4 Video (H264) 640x480 30fps 509kbps
Audio: AAC 44100Hz stereo 128kbps
Дата выпуска: 01.12.2010

Дед Максим

Обзор Risen от деда Максима

Video: MPEG4 Video (H264) 640x480 29.917fps 794kbps
Audio: AAC 44100Hz stereo 130kbps
Дата выпуска: 21.02.2011

Дед Макcим играет в Gothic 4

Video: MPEG4 Video (H264) 640x480 29.97fps 894kbps
Audio: AAC 44100Hz stereo 130kbps
Дата выпуска: 28.02.2011

Дед Максим играет в The Witcher 2

Video: MPEG4 Video (H264) 640x480 29.917fps 511kbps
Audio: AAC 44100Hz stereo 131kbps
Дата выпуска: 17.07.2011

Анонсы, подкасты, первые впечатления

Анонс обзора Gothic 4

Video: MPEG4 Video (H264) 640x480 25fps 377kbps [Video]
Audio: AAC 44100Hz stereo 127kbps [Audio]

Анонс на обзор Call of Duty - Black Ops

Video: MPEG4 Video (H264) 640x480 25fps 440kbps
Audio: AAC 44100Hz stereo 128kbps
Дата выпуска: 24.11.2010

Анонс на новый обзор

Video: MPEG4 Video (H264) 496x368 (4:3) 30fps
Audio: AAC 44100Hz stereo
Дата выпуска: 03.03.2011

О том что делал и чего ждать

Video: MPEG4 Video (H264) 640x480 25fps 819kbps
Audio: AAC 44100Hz stereo 113kbps
Дата выпуска: 21.04.2011

The Elder Scrolls V - Skyrim. Первые впечатления

Video: MPEG4 Video (H264) 640x480 30fps 867kbps
Audio: AAC 44100Hz stereo 131kbps
Дата выпуска: 13.11.2011

Skyrim. Первые впечатления + обращение к зрителям (Анонс + подкаст&#41;

Video: MPEG4 Video (H264) 720x480 25fps 924kbps
Audio: AAC 44100Hz stereo 94kbps
Дата выпуска: 14.11.2011

Обзор Batman - Arkham Asylum + обзор Stalker (Анонс&#41;

Video: MPEG4 Video (H264) 720x480 25fps 208kbps [Video]
Audio: AAC 44100Hz stereo 127kbps [Audio]
Дата выпуска: 13.02.2012

Обзор The Darkness 2 (Анонс&#41;

Video: MPEG4 Video (H264) 1280x720 25fps 311kbps
Audio: AAC 44100Hz stereo 100kbps
Дата выпуска: 27.02.2012

Подкаст от Забубенского

Video: MPEG4 Video (H264) 1280x720 29.97fps 1276kbps
Audio: AAC 44100Hz stereo 191kbps
Дата выпуска: 26.08.2012

+ Бонус

Welcome to N.K: Интервью с Васей Забубенским

Скачать Photoshop

Post 21-Nov-2021 15:20

[Quote]

AMY (Видео-прохождение) [Remaster-Alins]

Продолжительность

Эпизод 01 00:40:00
Эпизод 02 00:40:15
Эпизод 03 00:33:49
Эпизод 04 00:18:00
Эпизод 05 00:21:04
Эпизод 06 00:13:29
Озвучка: Английский
Субтитры: Английские
Описание: Видео-прохождение игры AMY. Режим сложности HARD.
Город заражен! Ходячие мертвецы шмыгают ноздрями, вынюхивая последних оставшихся в живых. Лишь одна вещь сдерживает вас от того, чтобы не пуститься наутек - маленькая девочка, которая все время держит вас за руку. Без нее вы никуда не пойдете. Готовьтесь к заражению!
Доп. Информация 1: Видео материал был создан мной. (Alins)
Доп. Информация 2: Видео обработано через Topaz Video Enhance AI 2.6.1 ---[url=tracker.php?rid=952991]Alins[/url]---. Это программа которая использует искусственный интеллект для увеличения разрешения и улучшения видео.
Формат: MP4
Видео: MPEG4 Video (H265) [HVC1] 1920x1080 30.00fps 7454Kbps
Аудио: AAC 48000Hz 128Kbps

Скриншоты

Скачать Photoshop

Post 20-Nov-2021 17:25

[Quote]

Давайте поиграем в Journey
(Полное, атмосферное прохождение игры с комментариями от Артура|BlackSilverUfa)

Год выпуска: 2012
Создатель видео: BlackSilverUfa
Продолжительность: серии по 29-34 минуты
Субтитры: нет
Язык озвучки : русский
Качество: HD
Формат: MP4
Информация о видео: H264 - MPEG-4 AVC, 1280x720, FPS 30.00
Информация о аудио: MPEG AAC Audio (mp4a), Stereo, 44100Hz-Краткое описание: [Полное, атмосферное прохождение игры с комментариями от Артура (BlackSilverUfa)
Описание:
Journey (рус. Путешествие) — видеоигра, разработанная компанией Thatgamecompany. Выход игры состоялся 7 марта 2012 года только для подписчиков PlayStation Plus, а полный выход в сети PlayStation Network состоялся 13 марта. Игроку предстоит совершить путешествие к очень далёкой горе. По продвижении в гору, игрок может встретиться с другим игроком, но никаких способов общения с ним не существует, и узнать кто это станет возможно только в конце игры. Journey получила множество положительных отзывов от критиков.
Доп. информация:
В Journey игрок представлен таинственной фигурой в необычной одежде, продвигающейся к далёкой горе через пустыню. В игре нет карты и подсказок. Во время путешествия игрок может встретиться с другими игроками, если они будут играть в режиме онлайн. Игроки не могут разговаривать друг с другом, но могут помогать друг другу во время путешествия. Имена других игроков, встреченных во время путешествия, не обозначаются непосредственно в процессе игры, но перечисляются в финальных титрах. Дизайнер игры Дженова: «История повествует о двух незнакомцах, которые встречаются в Интернете. Они не знают, кто они и сколько им лет. Всё, что знает каждый из них, это то, что это другой человек». Единственное подобие общения между игроками — это бессловесный крик, который так же является способом взаимодействия с другими элементами игры. Игроки будут иметь разные символы на плащах их одежды.
Во время путешествия по пустыне можно встретить куски ткани, которые могут быть собраны и использованы для того, чтобы получить возможность летать на небольшой промежуток времени. Игровой мир включает также магические предметы и руины. В игре будут присутствовать различные предметы и следы существования цивилизации, которые помогут понять историю игровой вселенной.-

Скриншоты

-Мои, аналогичные раздачи:
Давайте поиграем в Cry of Fear (BlackSilverUfa) | 720p
Давайте поиграем в Last of Us (BlackSilverUfa) | 1080p
Давайте поиграем в ZombiU (BlackSilverUfa) | 720p+1080p
Давайте поиграем в Condemned: Criminal Origins (BlackSilverUfa) | 720p
Давайте поиграем в Nightmare House 2 (BlackSilverUfa) | 720p

Скачать Photoshop

Post 20-Nov-2021 17:25

[Quote]

Скоростное прохождение Diablo 2 lord of destruction
Разработчик: Blizzard North
Продолжительность: 01:01:09
Субтитры: нет
Язык озвучки : нет
Качество: PlayRip
Формат: MP4
Информация о видео: 640x480
Информация о аудио: AAC
Доп. информация: Однажды в начале времён силы Порядка и Хаоса сошлись в вечной битве, чтобы решить судьбу всего сущего. Теперь эта борьба докатилась до мира смертных… и ни один человек, демон или ангел не останется в стороне…
В Diablo II: Lord of Destruction вы вернётесь, чтобы следовать по пути Баала, последнего из правителей Зла, на север, в Горы варваров. Двигаясь вместе с ордами демонических приспешников, Баал стремится разрушить могущественный Камень мира, который защищает земли смертных от сил Ада. Хотя Ваш герой и уничтожает мерзкого Баала, Камень Мира был осквернён. Чтобы предотвратить хаос, Архангел Тираэль решает уничтожить Камень Мира. Для него это лучшее решение всех проблем. Архангел отправляет Героя в город Харрогат через портал, а сам разрушает Камень Мира. С тех пор Тираэля больше никто не видел.
Дальнейшие события, происходящее через двадцать лет после вышеописанных, будут отражены в новом проекте Blizzard Entertainment под названием Diablo III.

Скриншоты

Mediainfo

Формат : MPEG-4
Профиль формата : Base Media
Идентификатор кодека : isom
Размер файла : 954 Мбайт
Продолжительность : 1 ч. 1 м.
Режим общего битрейта : Переменный
Общий поток : 2181 Кбит/сек
Дата кодирования : UTC 2009-10-17 07:23:16
Дата пометки : UTC 2009-10-17 07:23:16
Видео
Идентификатор : 1
Формат : AVC
Формат/Информация : Advanced Video Codec
Профиль формата : [email protected]
Параметр CABAC формата : Да
Параметр ReFrames формата : 3 кадра
Идентификатор кодека : avc1
Идентификатор кодека/Информация : Advanced Video Coding
Продолжительность : 1 ч. 1 м.
Битрейт : 2048 Кбит/сек
Максимальный битрейт : 7368 Кбит/сек
Ширина : 640 пикселей
Высота : 480 пикселей
Соотношение сторон : 4:3
Режим частоты кадров : Постоянный
Частота кадров : 25,000 кадров/сек
Цветовое пространство : YUV
Субдискретизация насыщенности : 4:2:0
Битовая глубина : 8 бит
Тип развёртки : Прогрессивная
Бит/(Пиксели*Кадры) : 0.267
Размер потока : 896 Мбайт (94%)
Библиотека кодирования : x264 core 59 r859 ce13bb6
Настройки программы : cabac=1 / ref=3 / deblock=1:0:0 / analyse=0x3:0x113 / me=umh / subme=7 / brdo=1 / mixed_ref=1 / me_range=16 / chroma_me=1 / trellis=2 / 8x8dct=1 / cqm=0 / deadzone=21,11 / chroma_qp_offset=0 / threads=1 / nr=0 / decimate=1 / mbaff=0 / bframes=3 / b_pyramid=0 / b_adapt=1 / b_bias=0 / direct=3 / wpredb=1 / bime=1 / keyint=250 / keyint_min=25 / scenecut=40 / rc=2pass / bitrate=2048 / ratetol=1.0 / rceq='blurCplx^(1-qComp)' / qcomp=1.00 / qpmin=19 / qpmax=51 / qpstep=4 / cplxblur=20.0 / qblur=0.5 / vbv_maxrate=25000 / vbv_bufsize=9000 / ip_ratio=1.40 / pb_ratio=1.30 / aq=2:1.00
Дата кодирования : UTC 2009-10-16 10:57:41
Дата пометки : UTC 2009-10-17 07:25:16
Аудио
Идентификатор : 2
Формат : AAC
Формат/Информация : Advanced Audio Codec
Профиль формата : LC
Идентификатор кодека : 40
Продолжительность : 1 ч. 1 м.
Вид битрейта : Переменный
Битрейт : 129 Кбит/сек
Максимальный битрейт : 175 Кбит/сек
Каналы : 2 канала
Расположение каналов : Front: L R
Частота : 44,1 КГц
Метод сжатия : С потерями
Размер потока : 56,4 Мбайт (6%)
Дата кодирования : UTC 2009-10-17 07:25:10
Дата пометки : UTC 2009-10-17 07:25:16

Скачать CorelDraw

Post 16-Nov-2021 22:00

[Quote]

Жанр: Action
Официальный сайт: NEOTOKYO
Платформа: PC
О NEOTOKYO:
NEOTOKYO - шутер от первого лица, который обеспечивает интуитивный & реалистический боевой опыт. . Чтобы играть NEOTOKYO, Вы должны будете иметьSTEAM account, и иметь игру HALFLIFE 2 или любую игру, которая дает вам Source SDK...
История
NEOTOKYO имеет место приблизительно через 30-40 лет в Японии, которая дрейфовала в социальную/политическую борьбу. Японское правительство обьединяет внешние (Азиатская геополитика) и внутренние (экономические/социальные) проблемы, и на этом основании усиливает давление изнутри Японии, чтобы возвратиться ко дням, когда это влияние было через военную власть и силу. Неудавшаяся законодательная попытка, чтобы изменить японскую Конституцию (разрешающий японским вооруженным силам участвовать в наступательных действиях за пределами страны) приводит к предпринятому военному перевороту членами вооруженных сил Японии (GSDF). Чтобы подавить дальнейшие попытки удачного хода, Премьер-министр Японии формируется, ветвь в Силах Национальной безопасности Министерства внутренних дел (NSF) под названием GROUP SIX. Они подчиняются непосредственно Премьер-министру и поклялись, что будут защитить японскую Конституцию любой ценой. Они противостоят GSDF (JINRAI). JINRAI - Группа Специальных операций 43 (SOG43), жестокие националисты,желающие вернуть Японию в её военное прошлое.
Это начинает войну в тенях между NSF и JINRAI.
Качество: HQ 720p
Формат: WMV
Видео: WMV9 1280x720 29.97fps 7686Kbps
Аудио: WMA 44100Hz stereo 192Kbps
Размер: 136 Мб

скрытый текст






Скачать CorelDraw

Post 16-Nov-2021 22:00

[Quote]

GTA Vice City - Великая История Игры / DVD-5 [RU] / (2012)
Год выпуска: 2012
Продолжительность: 01:02:02
Субтитры: нет
Язык озвучки: русский
Качество: DVD5
Формат: VOB
Информация о видео: NTSC 4:3 (720x480) VBR
Информация о аудио: Audio #1: AC3, 2/0 (L,R) ch, 192 kbps, Delay -33 mSec
Краткое описание: Прекрасный фильм прошедших всех миссий GTA Vice City
Описание: Прекрасный фильм прошедших всех миссий GTA. Главным героем игры является Томми Версетти, вышедший после 15 лет заключения из тюрьмы в Либерти-Сити. Чтобы вернуть доверие семьи, Томми по указанию босса Сонни Форелли отправляется в Вайс-Сити для заключения важной сделки с наркодилерами, однако на самом деле для предоставления Форелли возможности взять под свой контроль город. В аэропорту Томми встречает Кена Розенберга, и они вместе с двумя помощниками отправляются в доки, где должна проходить сделка. Неожиданно планы срываются: во время сделки вооружённые люди в масках, нанятые местным наркобароном Рикардо Диазом убивают помощников и Виктора Вэнса (протагониста GTA Vice City Stories), Томми удается спастись. Бандиты скрываются, забрав с собой наркотики и деньги, за которые отвечал Томми. Версетти рассказывает обо всём Сонни, который требует возврата наркотиков и денег. Дальнейшие события игры описывают становление преступной империи Версетти: торговля наркотиками, заказные убийства, фальшивомонетничество, рэкет и так далее. Постепенно Версетти становится главной преступной фигурой Вайс-Сити. В конце игры Сонни Форелли посещает Вайс-Сити с целью забрать 2 миллиона долларов, но Томми платит фальшивыми, после чего его предаёт «друг» Ленс Венс и Томми убивает обоих: Ленса и Форелли.
Доп. информация: Никакого процесса игры в фильме не имеется! Фильм создан ТОЛЬКО с видео перед миссиями и перед приобретением собственности в GTA Vice City.

Скриншоты

 

The time now is: Today 13:14

All times are GMT + 4 Hours