Search found 611 matches

Author Message

Скачать CorelDraw

Post 26-Jul-2021 13:50

[Quote]

Sengoku Basara [HD Collection]
Год выпуска: 2012
Создатель видео: Digital Frontier (CGI)
Продолжительность: 01:00:00
Субтитры: нет
Язык озвучки : японский, английский (для 1 и 3 частей)
Качество: BDRemux
Формат: MKV
Информация о видео:
(1-2 части) AVC, 1280x720, ~6.5 Мбит/сек, 29.97 кадра/сек
(3 часть) MPEG-2, 1280x720, ~30 Мбит/сек, 29.97 кадра/сек
Информация о аудио:
(1-3 части) [jpn] AC-3, стерео, 192 Кбит/сек, 48 КГц
+ (1 часть) [eng] AC-3, стерео, 192 Кбит/сек, 48 КГц
+ (3 часть) [eng] AC-3, 6 каналов, 640 Кбит/сек, 48 КГц
Описание:
Все видеоролики из игры (Opening + Ending). CGI + Anime.
Дополнительно в раздачу включены ролики из Sengoku Basara - Battle Heroes & Sengoku Basara - Chronicle Heroes.

Скриншоты

Sengoku Basara


Sengoku Basara 2


Sengoku Basara 3 (Sengoku Basara - Samurai Heroes)

Скачать Photoshop

Post 22-Jun-2021 17:25

[Quote]

Warcraft 3 The Frozen Throne (Speedrun)
-

-
Год выпуска: 2003
Разработчик: Blizzard Entertainment
Продолжительность: 02:04:50
Субтитры: нет
Язык озвучки : английский
Качество: FLV
Формат: MP4
Информация о видео: MPEG4 Video (H264) 608x480
Информация о аудио: AAC 44100Hz stereo
-
Описание: Скоростное прохождение Warcraft 3 The Frozen Throne на тяжёлом уровне сложности. Видеоролики взяты с Youtube, автор - Liderharen. Когда я всё это смотрел, вопрос "как ты это делаешь, мать твою?" ставился почти в каждой главе.-Reign of Chaos- --

Скачать Photoshop

Post 22-Jun-2021 17:25

[Quote]

Прохождение с комментариями Metal Gear Solid 2: Sons of Liberty by RIGget
Год выпуска: 2011
Создатель видео: RIGget, он же NickoBelicNY
Продолжительность: 11 часов
Субтитры: нет
Язык озвучки : русский
Качество: HDRip
Формат: MP4
Информация о видео: MPEG4 Video (H264) 1280x720 1101 Kbps 29.97fps
Информация о аудио: AAC 44100Hz stereo 1411kbps
Описание:
Полное прохождение с комментариями от RIGget, он же NickoBelicNY.
Все видео скачаны с youtube.com в 720p.

Скриншоты





Скачать Photoshop

Post 22-Jun-2021 17:25

[Quote]

Metal Gear Solid
Год выпуска: 2011
Разработчик: Konami
Продолжительность: приблизительно 7-8 часов
Субтитры: русские
Язык озвучки : английский
Качество: HD-Rip
Формат: FLV

MediaInfo

Format : Flash Video
File size : 88.5 MiB
Duration : 14mn 50s
Overall bit rate : 834 Kbps
httphostheader : v5.cache4.c.youtube.com
Video
Format : AVC
Format/Info : Advanced Video Codec
Format profile : [email protected]
Format settings, CABAC : Yes
Format settings, ReFrames : 3 frames
Codec ID : 7
Duration : 14mn 50s
Bit rate : 728 Kbps
Width : 854 pixels
Height : 480 pixels
Display aspect ratio : 16:9
Frame rate mode : Constant
Frame rate : 30.000 fps
Color space : YUV
Chroma subsampling : 4:2:0
Bit depth : 8 bits
Scan type : Progressive
Bits/(Pixel*Frame) : 0.059
Stream size : 77.4 MiB (87%)
Audio
Format : AAC
Format/Info : Advanced Audio Codec
Format profile : LC
Codec ID : 10
Duration : 14mn 50s
Bit rate : 96.5 Kbps
Channel(s) : 2 channels
Channel positions : Front: L R
Sampling rate : 44.1 KHz
Compression mode : Lossy
Stream size : 10.2 MiB (12%)
Описание: База утилизации ядерного оружия на острове "Тень Моисея" входящий в состав Аляски, была откована и захвачена спец подразделением из бывших сотрудников "Фоксхаунд". Они требуют от правительства США останки Биг Босса, и если их требования не исполнят в ближайшие 24 часа, они применят ядерное оружие.
Что бы их остановить отправляют лучшего агента, героя легенду, Солида Снейка. По началу задачи у него две, спасти шефа проекта "дарпа" Дональда Андерсона и президента корпорации "Армстех" Кеннета Бейкера. Во-вторых, пролить свет на возможность применения ядерного оружия террористами.
Доп. информация: Авторский веб сайт - http://nickobelicny.3dn.ru
Авторская группа "В контакте" - http://vkontakte.ru/club19440443
Авторский канал на You-Tube http://www.youtube.com/user/NickoBelicNY
РАЗДАЮ С 15.00 ДО 23.00!!!!!!!!!!!!
КАЖДОЕ СКАЗАННОЕ СПАСИБО - ЭТО СПАСИБО АВТОРУ!!!!!!!!!!!!!!!ПОБЛАГОДАРИТЕ ЧЕЛОВЕКА ЗА РАБОТУ!!!!!!!!!!!!!!!!!!!!!!

Скриншоты



Скачать Photoshop

Post 20-Jun-2021 13:55

[Quote]

Metro 2033 [Ranger Hardcore]
Год выпуска: 2015
Создатель видео: tpwz
Продолжительность: 4:54:24
Субтитры: русские
Язык озвучки : русский
Качество: HD
Формат: MP4
Информация о видео: H.264 1920x1080 ~5500kbps 60fps
Информация о аудио: AAC 44.1kHz 128kbps Stereo
Краткое описание: прохождение
Описание:
Осторожно, двери закрываются...
Доп. информация:
концовка стандартная

Скриншоты


Скачать Photoshop

Post 18-Jun-2021 11:35

[Quote]

Video: DivX 3 320x240 60.00fps
PCM 11025Hz stereo 176Kbps

Скачать CorelDraw

Post 18-Jun-2021 11:35

[Quote]

GTA IV: The Trashmaster / GTA IV: Мусорщик
Год выпуска: 2010
Продолжительность: 01:28:48
Субтитры: русские (внешние) + французские (неотключаемые)
Язык озвучки : русский
Перевод: Любительский (одноголосый закадровый) - Jet (Jetvis Studio)
Релиз:
Описание: Художественный фильм The Trashmaster создан на движке GTA IV во встроенном видеоредакторе. Сюжет фильма рассказывает о несчастном мусорщике, который в один прекрасный день берет в руки оружие и начинает уничтожать всех, кто ему не нравится.
Сюжет картины, получившей название The Trashmasters, строится вокруг молодого человека, который днем работает мусорщиком, а вечера посвящает "любимому хобби" - уничтожению разного рода преступников. Однажды его любимая стриптизерша гибнет, и он выходит на след настоящего серийного маньяка.
Доп. информация: Сценарий 88-минутной картины Вешлер написал сам, а для дублирования диалогов пригласил американского актера. В общей сложности работа над фильмом велась более 2 лет. Официальная премьера картины состоится в феврале в Сан-Франциско на Фестивале независимого кино (the San Francisco Independent Film Festival).

ОРИГИНАЛЬНАЯ ДОРОЖКА ЗДЕСЬ

[url=http://narod.ru/disk/3680185001/The%20Trashmaster%20(eng).mp3.html]http://narod.ru/disk/3680185001/The%20Trashmaster%20(eng).mp3.html[/url]

Наши релизы

[url=tracker.php?&nm=Jetvis]Наши релизы[/url]

Если вам надо что-то озвучить

Если вам надо что-то озвучить, пишите мне ЛС, в теме укажите Озвучка, пишем, что вам надо озвучить, с прилагающейся ссылкой на субтитры и ссылкой на сериал, залитый на файлообменник, с которого можно скачать со скоростью хотя бы 250 Кб/с (например народ.ру ну или на пиратскую бухту (чтобы мне не ухудшать рейтинг закачки на рутрекере)). Все заявки будут рассмотрены и будет дан ответ, возьмусь я за озвучку или нет.
Формат: MP4
Видео: H264, 1280x720 (16:9) ~1312 kbps avg, 29.970 fps
Аудио: MP3, 44.1 Khz, 192 kbps, 2ch

Скриншоты

Скачать CorelDraw

Post 18-Jun-2021 11:35

[Quote]

Flatout Movies Год выпуска: 2005-2012
Местоположение: Россия, Новосибирск
Жанр: Видео из игры
Автор: temp
Продолжительность (общая): 00:29:46

Продолжительность каждого ролика:

Flatout 1 - 00:02:02
Flatout 2 - 00:02:10
Flatout 3 - 00:02:52
Flatout 4 - 00:02:49
Flatout 5 - 00:02:41
Flatout 6 - 00:05:45
Flatout 7 - 00:03:42
Flatout 8 - 00:03:48
Flatout 9 - 00:03:58
Описание: 9 видеороликов (мувиков), состоящих из нарезки интересных/забавных моментов из игр Flatout, Flatout 2 и Flatout Ultimate Carnage.
Самые первые делались ещё в 2005 году, восьмой в 2008-м, а девятый в 2012-м. Такой вот временной разрыв.
(Flatout 3 и Flatout 8 рекомендуются к просмотру в обязательном порядке)
Моменты действительно интересные, а не тупая нарезка геймплейного видео, которую я мог бы тоннами штамповать.
Формат: AVI
Видео кодек: DviX, XviD
Аудио кодек: MP3
Видео: DviX, XviD; 512x384; 25-30fps; 500-4500Kbps
Аудио: MPEG Audio Layer 3; 44000Hz; stereo; 192Kbps
Размер (общий): 863Мб

Скриншоты:


Скачать CorelDraw

Post 18-Jun-2021 11:35

[Quote]

The Bad Assassin / Никчёмный убийца Год выпуска: 2010-2013
Создатель видео: EuphorianFilmers
Продолжительность: ~14 минут
Жанр: Машинима, Комедия, Боевик
Язык озвучки : русский
Перевод: Любительский многоголосый закадровый (StopGame)
Субтитры: нет
Качество: WEB-DLRip
Формат: MKV
Видео: H264, 29.970-30 fps; 1-ый эпизод - 480х270, 430 Kbps; 2-5 эпизоды - 1280x720, 1700-2000 Kbps,
Аудио №1: AAC, 48 kHz, stereo, 2 ch, 128-192 Kbps avg (Русский - StopGame)
Аудио №2: AAC, 48 kHz, stereo, 2 ch, 128-192 Kbps avg (Ангийский)
Описание:
"Меня зовут ТиДжей. Я киллер. Худший в своём деле."

Скриншоты


Скачать CorelDraw

Post 18-Jun-2021 11:35

[Quote]

Call of Duty: Black Ops [2010]E3 Trailers (720p) [HD] Год выпуска: 2010
Жанр: Action (Shooter) / 3D / 1st Person
Разработчик: Treyarch
Издатель: Activision
Оф. сайт: http://www.callofduty.com/blackops/
Платформа:
Язык: Английский-Описание:
Мэтт Ламиа (Matt Lamia), директор Treyarch, может смело идти в шпионы: если что, он заговорит зубы, но не сболтнет лишнего. На пресс-показе Call of Duty: Black Ops все вопросы журналистов, выходившие за узкие рамки, быстро тонули в потоке белозубых улыбок и красивых слов. Мультиплеер? Да, будут выделенные серверы для РС-версии, гибкая настройка персонажа и еще более глубокая интеграция в социальные сети, чем у Blur, но-больше-мы-ничего-не-расскажем. Сетевые режимы, равно как и загадочные коммунисты-зомби, оставлены на «потом». Первая волна PR-атаки состояла из пары «сингловых» уровней

Первый взгляд (За превью спасибо AG.ru)

Радуга жесть
Глядя на мир через стекло гермошлема, мы садимся в кабину самолета-разведчика SR-71 «Blackbird» и взлетаем в верхние слои атмосферы. Камера слежения смотрит в сторону Уральских гор, где четыре элитных агента ЦРУ проводят сверхсекретную операцию. Двигая перекрестьем по черно-белой картинке тепловизора, пилот управляет бойцами на земле и уводит их подальше от патрулей.
«Тактическая стратегия» отнимает полминуты. Отряд достигает нужной точки, и незримый режиссер, следуя канонам Call of Duty, переселяет нас в сержанта Хадсона из той самой элитной четверки. Герой ползет по снегу и, сжимая в руке арбалет с разрывными стрелами, прячется от суровых мужиков-с-овчарками. Ни одна игра серии, начиная с CoD 4, не упустила шанс ввернуть подобную сценку.
Спустившись по стене здания на тросе (привет Rainbow Six: Vegas), агенты влетают в окно военной радиостанции и за считанные секунды уничтожают противников. Компьютерные напарники демонстрируют «домашние заготовки» дизайнеров и аниматоров: берут врагов в заложники, сворачивают шеи или сбрасывают несчастных в пропасть. Правда, бесшумно уйти не удастся — на узел связи вот-вот прибудут подкрепления, поднятые по тревоге. У Хадсона и его товарищей остается единственный выбор: прыгнуть с утеса в снежную пелену…
Желая сыграть на контрасте, Мэтт Ламиа запускает эпизод «Slaughterhouse», где действует уже другая группа спецназовцев. Им предстоит пробиться к американской базе в городе Хюэ, захваченной вьетнамскими войсками, и вытащить оттуда ценные документы. Конечно, пекло войны — классические декорации Call of Duty, живущие по заранее написанным скриптам, но надо отдать Treyarch должное: при всей вторичности (пятеричности? семеричности?) побоище выглядит здорово. Повсюду летает мусор, пули ломают мебель и сшибают доски объявлений со стен. От души угостив вьетнамцев фосфорными зарядами из SPAS-12, дополняющими обычные патроны, герой получает целеуказатель. Нажатие кнопки — и прилетевший по вызову Huey, урча пулеметами, заливает позицию свинцом.
Все лучшее — суперагентам
Cумеют ли сценаристы связать воедино такие непохожие уровни, не превратив повествование в лоскутное одеяло Modern Warfare 2, станет ясно не раньше ноября. Пока что студия хранит гробовое молчание и упоминает лишь нехорошего советского генерала. Примерная продолжительность кампании — и та покрыта мраком: мол, не все еще доделано, заявил Ламиа. И тут же добавил: «О, кстати, мы же дадим вам полетать на Ми-24!». Жаль, в кабине будет сидеть гражданин США — переметнуться к Советам позволят только в мультиплеере. Чему посвящен «кооператив» (двое на разделенном экране или четверо в онлайне) — вообще тайна.
Русская тема вполне может обернуться очередной «клюквой», но Treyarch, по крайней мере, общалась с консультантами. Помимо советника с американской стороны, проекту помог Сонни Пузикас (Sonny Puzikas), экс-спецназовец МВД СССР. Его сведения оказались столь полезными, что дизайнеры даже ввели новые элементы геймплея. Так, элитные бойцы во всех странах мира обладают доступом к любому виду оружия и снаряжения, включая экспериментальные прототипы (потому-то в Black Ops, события которой происходят в 1968-м, есть винтовка Steyr AUG, чье массовое производство началось в конце 1970-х), и порой модифицируют «стволы» вручную. А история про австралийского солдата, ходившего на задания с луком, натолкнула авторов на мысль об арбалете.
Тройной удар
Продюсеры обещают сделать Black Ops лучше, чем предыдущие части, и рассматривают ее не иначе, как три игры в одной упаковке. После World at War, которую ваяли параллельно с Quantum of Solace и Spider-Man: Web of Shadows, Treyarch в 2008-м кардинально изменила свою структуру и теперь, как некогда Infinity Ward, занимается штучным выпуском Call of Duty. Вдруг сдюжит?
Превью актуально для
Доп. информация:
Официальный трейлер новой игры из серии Call of Duty с Е3 в HD качестве!-UNCUT REVEAL TRAILER
Качество: HD
Формат: MOV
Видео кодек: H.264
Аудио кодек: PCM
Видео: MPEG4 Video (H264) 1280x720 59.94fps 9601 Kbps
Аудио: PCM 48000Hz stereo 1536kbps
Продолжительность: 00:01:42
Размер: 135MB
Black Ops Remix Feat. Eminem
Качество: HD
Формат: MP4
Видео кодек: H.264
Аудио кодек: AAC
Видео: MPEG4 Video (H264) 1280x720 59.94fps 16 Mbps
Аудио: AAC 44100Hz stereo 192 Kbps
Продолжительность: 00:01:06
Размер: 127MB

Статусы по платформам и регионам

в разработке, запланирована на 9 ноября 2010 г.

Скриншоты

Скачать CorelDraw

Post 18-Jun-2021 11:35

[Quote]

Serious Sam 3 / Крутой Сэм 3
Год выпуска: 2011
Разработчик: Croteam
Фан-сайт: SeriousSite.ru
Продолжительность: 00:01:01
Субтитры: русские
Язык озвучки : нет
Качество: Web-HD
Формат: MP4
Информация о видео: MPEG4 Video (H264) 1280x720 25.00fps
Информация о аудио: AAC 48000Hz stereo 1536kbps
Описание: Русскоязычный трейлер хорватской игры Serious Sam 3 от Croteam. Перевод от SnowBall
Доп.информация:
Особенности игры:
Безумный экшен - уложи на лопатки и разорви в клочья всё что движется. Никаких перестрелок из укрытий, никакого кемпинга - только один ты против их всех.
Внушающие страх полчища захватчиков - новая армия вооружённых до зубов врагов, готовая разорвать вас в пух и прах при малейшей возможности, вам посчастливится вышибить мозги как легендарным Камикадзе, Гнаарам и Сирианским быкам оборотням, так и новым Scrapjack и Khnum.
Серьёзные разборки – Когда враг перехватывает инициативу, используй один из новых инновационных шагов в геймплее, который поможет вернуть инициативу в твои руки, в то время когда кажется, что ты не более чем кусок мяса.
Оторвись с друзьями - У тебя есть возможность пройти компанию с 16 игроками, или нафаршировать свинцом друг друга в режиме "противоборство”.

Скриншоты

Скачать CorelDraw

Post 17-Jun-2021 16:10

[Quote]

Самый большой архив VOD'ов по Dota Allstars от v1lat'a
Год выпуска: 2011
Автор видео: v1lat + Prodota.ru
Продолжительность: 120+ часов
Субтитры: нет
Язык озвучки : русский
Качество: Web-DL, 720p
Комментатор: Виталий v1lat Волочай
Формат: FLV
Описание: Самый большой архив матчей, трансляций и стримов по Доте. Практически все VOD'ы, которые у меня получилось собрать с разных компьютеров и так далее за 2011 год.
40 гигов доты, более 120 часов веселых матчей от Вилата
Все игры Intel Challenge SuperCup 7 и 8 сезонов, очень много матчей с лиги Farm4Fame 3, китайские игры, скайп-шоу, комментарии с разными людьми (3 матча v1lat+pgg) и много-много других игр.

Информация о видео

Format : Flash Video
Overall bit rate : 1 422 Kbps
Writing application : Lavf52.88.0
Video
Format : AVC
Format/Info : Advanced Video Codec
Bit rate : 1 260 Kbps
Width : 1 280 pixels
Height : 720 pixels
Display aspect ratio : 16:9
Frame rate : 1 000.000 fps
Bits/(Pixel*Frame) : 0.001
Stream size : 588 MiB (89%)
Audio
Format : MPEG Audio
Format version : Version 1
Format profile : Layer 3
Mode : Joint stereo
Format_Settings_ModeExtension : MS Stereo
Bit rate mode : Constant
Bit rate : 96.0 Kbps
Channel(s) : 2 channels
Sampling rate : 44.1 KHz
Stream size : 44.8 MiB (7%)

Скриншоты

Скачать Photoshop

Post 16-Jun-2021 05:00

[Quote]

Metro Last Light Redux [Survival Ranger Hardcore]
Год выпуска: 2015
Создатель видео: tpwz
Продолжительность: 5:14:42
Субтитры: русские
Язык озвучки : русский
Качество: HD
Формат: MP4
Информация о видео: H.264 1920x1080 ~10000kbps 60fps
Информация о аудио: AAC 44.1 192kbps Stereo
Краткое описание: прохождение
Описание:
Это — максимально сложное испытание, которое может предложить вам Метро!

Скриншоты

Скачать CorelDraw

Post 15-Jun-2021 17:20

[Quote]

Indie Game: The Movie Год выпуска: 2012
Производство: Канада, BlinkWorks Media
Продолжительность: 01:43:05
Озвучка : Русская любительская многоголосая закадровая (Никита Пугач, Иван Потапов, Ева Шестакова)
Субтитры: Графически перерисованы английские надписи (Андрей Шапал)
Качество: HD
Формат: MKV
Информация о видео: Xvid 1280x720 23.976fps 3912 kbps
Информация о аудио: MP3 48000Hz stereo 128 kbps
Семпл
Описание: Это документальное кино, рассказывающее истории четырех замечательных разработчиков и трёх не менее замечательных игр. Фильм расскажет как Эдмунд МакМиллен и Томми Рефенес делали и выпускали SUPER MEAT BOY. Как Фил Фиш показывал первый прототип Fez на выставке PAX EAST. А также поведает историю Джонатана Блоу, создателя великолепной BRAID. Как заверяют авторы, лейтмотивом всего фильма должна стать идея выражения собственной индивидуальности разработчика через создание игры.
Кинопоиск: 8.845 (168)
IMDb: 8.00 (1 679)
Награды: Санденс, 2012 год, Гран-при в категории «Документальный фильм» (Программа «Мировое кино»)

MediaInfo

General
Unique ID : 228819401444969811005300495786011810625 (0xAC2503827F03462DBDF556F2D8905B41)
Complete name : E:\indie\indiegame2.mkv
Format : Matroska
Format version : Version 2
File size : 2.97 GiB
Duration : 1h 43mn
Overall bit rate : 4 123 Kbps
Encoded date : UTC 2012-08-15 08:09:29
Writing application : mkvmerge v3.0.0 ('Hang up your Hang-Ups') built on Dec 12 2009 15:20:35
Writing library : libebml v0.7.9 + libmatroska v0.8.1
Video
ID : 1
Format : MPEG-4 Visual
Format profile : Advanced [email protected]
Format settings, BVOP : No
Format settings, QPel : No
Format settings, GMC : No warppoints
Format settings, Matrix : Default (MPEG)
Codec ID : XVID
Codec ID/Hint : XviD
Duration : 1h 43mn
Bit rate : 3 912 Kbps
Width : 1 280 pixels
Height : 720 pixels
Display aspect ratio : 16:9
Frame rate : 23.976 fps
Color space : YUV
Chroma subsampling : 4:2:0
Bit depth : 8 bits
Scan type : Progressive
Compression mode : Lossy
Bits/(Pixel*Frame) : 0.177
Stream size : 2.82 GiB (95%)
Writing library : XviD 64
Default : Yes
Forced : No
Audio
ID : 2
Format : MPEG Audio
Format version : Version 1
Format profile : Layer 3
Mode : Joint stereo
Mode extension : MS Stereo
Codec ID : A_MPEG/L3
Codec ID/Hint : MP3
Duration : 1h 43mn
Bit rate mode : Constant
Bit rate : 128 Kbps
Channel(s) : 2 channels
Sampling rate : 48.0 KHz
Compression mode : Lossy
Stream size : 94.4 MiB (3%)
Default : Yes
Forced : No

Скриншоты

Озвучено студией:

Скачать CorelDraw

Post 15-Jun-2021 17:20

[Quote]

Год выхода: 2012
Название: Спецотряд Призрак: Альфа
Оригинальное название: Ghost Recon: Alpha
Перевод: любительский одноголосый (zamez)Ненормативная лексика
Продолжительность: 00:23:57
Жанр: боевик
Режиссер: Франсуа Ало, Эрве де Креси
В ролях: Радек Бруна, Карел Добры, Кейт Гилмор, Марк Иванир, Павел Лединский, Шарлотта Рэмплинг, Эрих Редман, Чук Сибтайн, Дэниэл Свобода, Чуки Венис и другие.
О фильме:
Ghost Recon Alpha, фильм-приквел к игре Ghost Recon: Future Soldier.
Размещенные глубоко в тылу врага, призраки должны ударить оперативно и устранить одного из самых опасных преступников в мире, и исчезнуть так же как они и пришли.
[kp]680313[/kp]
Страна: США, Великобритания
Кодек: XVID
Качество: HDRip
Видео: 720х304 , 25.000 fps, 712 Kbps
Звук: MP3 128 Kbps 44.1 KHz
Субтитры: нет
Скриншоты

 

The time now is: Today 23:07

All times are GMT + 4 Hours