Search found 500 matches

Author Message

Скачать CorelDraw

Post 18-Jan-2021 18:20

[Quote]

Resident Evil 3 Remake - The Movie
Год выпуска: 2020
Создатель видео: Coldshade
Продолжительность: 2:31:59
Субтитры: русские, английские
Язык озвучки : английский
Качество: FullHD
Формат: MP4
Информация о видео: HVC1 1920x1080 29.97fps 7902kbps [V: hevc main, yuv420p, 1920x1080, 7902 kb/s]
Информация о аудио: AAC 44100Hz stereo 151kbps [A: SoundHandler (aac lc, 44100 Hz, stereo, 151 kb/s)] Краткое описание: Фильм по игре Обитель Зла 3 Римейк
Описание:
Джилл Валентайн - одна из немногих выживших Инцидента в Особняке - спустя три месяца безуспешной борьбы с Корпорацией Амбрелла, вынуждена снова стать участником событий, еще более ужасающих по своим масштабам. Это будет ее последний шанс на спасение. Ее последний побег.
Доп. информация:
Катсцены и геймплей совмещены в одну полную картину событий игры Обитель Зла 3 Римейк. Использовались фиксированная и динамичная камеры в некоторых местах - как дань уважения оригиналу и как способ придать кинематографичность. Полностью записано и срежиссировано мною, перевод, субтитры и тайминг так же мои.

Скриншоты

Скачать CorelDraw

Post 10-Dec-2020 14:45

[Quote]

Обучение игры в World of Tanks
Год выпуска: 2020
Продолжительность: 10:0:0
Субтитры: нет
Язык озвучки : русский
Качество: 720
Формат: MP4
Информация о видео: MP4
Информация о аудио: AAC
Описание:
Обучение игры от топовых игроков Near_You, VOVAKRASABA. Если у вас есть желание научиться играть на фиолетовый WN8, то из данного сборника вы получите избыточную информацию для решения этой задачи.

Скачать CorelDraw

Post 03-Dec-2020 10:05

[Quote]

ZOOM
Год выпуска: 2010
Страна: Россия
Жанр: Телепередача.
Продолжительность: ~23мин/серия
Язык: Русский
Ведущий: Федя Мега Драйв
Описание: Еженедельный тележурнал о компьютерных играх.
Выпуски от:
25.04.10 -new
02.05.10 -new
09.05.10
17.05.10
25.05.10
31.05.10
07.06.10 -new
Сюжеты:
1. Новости Хай-Тек
2. Обзор "железа"
3. Демо (обзор невышедших игр)
4. Ретро (обзор игр прошлого)
5. Консоли с антресоли (игры с 8,16 битных приставок)
Качество: SatRip
Формат: AVI
Видео кодек: XviD
Аудио кодек: MP3
Видео: XVID 704 x 568 (1.333) 25.00fps 1300 Кбит/сек
Аудио: 128 Кбит/сек, 48000Hz, MPEG Audio Version 1 layer 3, stereo.

Скриншоты

Скачать CorelDraw

Post 08-Nov-2020 20:35

[Quote]

Sonic the hedgehog 2006 - ИГРОФИЛЬМ
Год выпуска: 2020
Создатель видео: Mefirsu
Продолжительность: 02:31:53
Субтитры: русские
Язык озвучки : японский
Качество: WEBRip
Формат: MKV
Информация о видео: 2560x1440, 60fps, VP9
Информация о аудио: JP, AAC LC, 44.1КГц, 2 канала
Краткое описание: Игрофильм с фрагментами прохождения.
Описание:
Все катсцены склеенные в гармоничной последовательности в 4K разрешении с японским вариантом озвучки, ближе к изначальной задумке сценаристов игры, нежели западная версия, также русские субтитры переведенные с японского текста.

Скачать CorelDraw

Post 30-Oct-2020 01:10

[Quote]

Dead Space 2 Severed / Мёртвый космос 2. Разлучённые (Игровой фильм, полный сюжет)
Год выпуска: 2020
Создатель видео: Никита «Brandon Heat» Хромов
Продолжительность: 00:39:19
Субтитры: русские, отключаемые
Язык озвучки : английский
Качество: HD
Формат: MKV
Информация о видео (кратко): AVC, 5387kbps, 1920x1080, 29.970fps
Информация о аудио (кратко): AC-3 2.0, 48.0 KHz, 384 Kbps

Информация о видео (подробно)

ID                          : 1
Format                      : AVC
Format/Info                 : Advanced Video Codec
Format profile              : [email protected]
Format settings             : CABAC / 16 Ref Frames
Format settings, CABAC      : Yes
Format settings, Reference  : 16 frames
Codec ID                    : V_MPEG4/ISO/AVC
Duration                    : 39 min 19 s
Bit rate                    : 5 387 kb/s
Nominal bit rate            : 6 000 kb/s
Width                       : 1 920 pixels
Height                      : 1 080 pixels
Display aspect ratio        : 16:9
Frame rate mode             : Constant
Frame rate                  : 29.970 (30000/1001) FPS
Color space                 : YUV
Chroma subsampling          : 4:2:0
Bit depth                   : 8 bits
Scan type                   : Progressive
Bits/(Pixel*Frame)          : 0.087
Stream size                 : 1.48 GiB (93%)
Title                       : Dead Space 2 Severed
Writing library             : x264 core 159 r2991 1771b55
Encoding settings           : cabac=1 / ref=16 / deblock=1:-3:-3 / analyse=0x3:0x113 / me=umh / subme=10 / psy=1 / psy_rd=1.00:0.00 / mixed_ref=1 / me_range=48 / chroma_me=1 / trellis=2 / 8x8dct=1 / cqm=0 / deadzone=21,11 / fast_pskip=1 / chroma_qp_offset=-2 / threads=9 / lookahead_threads=1 / sliced_threads=0 / nr=0 / decimate=1 / interlaced=0 / bluray_compat=0 / constrained_intra=0 / bframes=8 / b_pyramid=2 / b_adapt=2 / b_bias=0 / direct=3 / weightb=1 / open_gop=0 / weightp=2 / keyint=300 / keyint_min=30 / scenecut=40 / intra_refresh=0 / rc_lookahead=60 / rc=cbr / mbtree=1 / bitrate=6000 / ratetol=1.0 / qcomp=0.60 / qpmin=0 / qpmax=69 / qpstep=4 / vbv_maxrate=6000 / vbv_bufsize=4285 / nal_hrd=none / filler=0 / ip_ratio=1.40 / aq=1:1.00
Language                    : English
Default                     : Yes
Forced                      : Yes
Color range                 : Limited
Color primaries             : BT.709
Transfer characteristics    : BT.709
Matrix coefficients         : BT.709

Информация о аудио (подробно)

ID                          : 2
Format                      : AC-3
Format/Info                 : Audio Coding 3
Commercial name             : Dolby Digital
Codec ID                    : A_AC3
Duration                    : 39 min 19 s
Bit rate mode               : Constant
Bit rate                    : 384 kb/s
Channel(s)                  : 2 channels
Channel layout              : L R
Sampling rate               : 48.0 kHz
Frame rate                  : 31.250 FPS (1536 SPF)
Compression mode            : Lossy
Stream size                 : 108 MiB (7%)
Title                       : AC3 2.0
Language                    : English
Service kind                : Complete Main
Default                     : Yes
Forced                      : Yes
Описание:
Вашему вниманию предлагается очередной игровой фильм по вселенной Dead Space, созданный на основе игры «Dead Space 2 Severed».
Да, таких фильмов сейчас много, а отличие моего от остальных в том, что я постарался максимально передать сюжет, который является прямым продолжением истории, рассказанной в Dead Space Extraction, и происходит параллельно с тем, как Франко Делайл вытаскивает Айзека из отделения психиатрии в Dead Space 2.

Доп. информация

При создании, как и всегда, упор делал не на банальном склеивании скриптовых сцен (коих, кстати, здесь не так много), а на построении максимально логичной цепочки рассказа истории, с минимумом беготни и кинематографическими вставками.
Создатель видео и автор перевода: Никита «Brandon Heat» Хромов.
По умолчанию выставлены русские субтитры.
По просьбам трудящихся добавлены английские субтитры.
Для прожжённых фанатов добавлены субтитры на языке Обелиска.
Веб-версию без субтитров можно посмотреть тут.
Веб-версию с субтитрами можно посмотреть тут.
Качество, разумеется, не такое как в раздаче, но можно посмотреть на карманном устройстве.
Другие мои фильмы по серии «Dead Space»:
Игрофильм по Dead Space
Анимированный комикс
Игрофильм по Dead Space Extraction
Игрофильм по Dead Space 2: Ignition
Игрофильм по Dead Space 2
Игрофильм по Dead Space 3
Приятного просмотра!

Скриншоты

Скачать CorelDraw

Post 28-Oct-2020 15:50

[Quote]

Filmora 9
Год выпуска: 2020
Создатель видео: Я
Продолжительность: 10:10:10
Субтитры: нет
Язык озвучки : русский
Качество: HD
Формат: mp4
Информация о видео: Обычное
Информация о аудио: АГАГА
Краткое описание: Игра
Описание:
СОфт
Доп. информация:
дадада

Скриншоты

Скачать CorelDraw

Post 21-Oct-2020 20:45

[Quote]

-Final Fantasy XVI - Awakening Trailer (1080p) [HD] [2020]-- Год выпуска: 2020
Создатель видео: SQUARE ENIX
Продолжительность: 00:04:02
Субтитры: нет
Язык озвучки : Английский, Японский, Русский
Качество: HD
Формат: MKV
Информация о видео: AVC,1920x1080 pixels,16:9, 8-20 Mbps, 29.970 fps
Информация о аудио: AAC, 201-320 kbps, 2 channels, 48.0 KHz-Описание:Final Fantasy XVI - находящаяся в разработке компьютерная игра в жанре Action/RPG, разрабатываемая японской компанией Square Enix. Игра должна стать очередной частью серии Final Fantasy. Выход игры для консоли PlayStation 5 запланирован на 2021 год. Игра была анонсирована в сентябре 2020 года в рамках мероприятия PlayStation 5 Showcase Event; первоначальный трейлер также упоминал ПК (Microsoft Windows) как платформу, но это упоминание было позже убрано. Продюсером игры выступает Наоки Ёсида, руководителем разработки — Хироси Такаи; оба в предыдущие годы работали над Final Fantasy XIV.-Доп. информация:
В этой раздаче представлен видеоролик игры:
PS5 Showcase Event 2020 Трейлер с английским, японским дубляжом и русской озвучкой.-

Скриншоты

Final Fantasy XVI - Awakening - PS5 Showcase Event 2020 Trailer (Eng dub + Jap dub + Rus dub)

[url=tracker.php?rid=17801953] [/url]

Скачать CorelDraw

Post 20-Sep-2020 00:30

[Quote]

Dead Space Extraction / Мёртвый космос. Добыча (Игровой фильм, полный сюжет)
Год выпуска: 2020
Создатель видео: Никита «Brandon Heat» Хромов
Продолжительность: 02:41:12
Субтитры: русские, отключаемые
Язык озвучки : английский
Качество: HD
Формат: MKV
Информация о видео (кратко): AVC, 4613kbps, 1920x1080, 59.940fps
Информация о аудио (кратко): AC-3 2.0, 48.0 KHz, 384 Kbps

Информация о видео (подробно)

ID                          : 1
Format                      : AVC
Format/Info                 : Advanced Video Codec
Format profile              : [email protected]
Format settings             : CABAC / 5 Ref Frames
Format settings, CABAC      : Yes
Format settings, Reference  : 5 frames
Codec ID                    : V_MPEG4/ISO/AVC
Duration                    : 2 h 41 min
Bit rate                    : 4 613 kb/s
Nominal bit rate            : 5 000 kb/s
Width                       : 1 920 pixels
Height                      : 1 080 pixels
Display aspect ratio        : 16:9
Frame rate mode             : Constant
Frame rate                  : 59.940 (60000/1001) FPS
Color space                 : YUV
Chroma subsampling          : 4:2:0
Bit depth                   : 8 bits
Scan type                   : Progressive
Bits/(Pixel*Frame)          : 0.037
Stream size                 : 5.19 GiB (92%)
Title                       : Dead Space Extraction
Writing library             : x264 core 159 r2991 1771b55
Encoding settings           : cabac=1 / ref=5 / deblock=1:-3:-3 / analyse=0x3:0x113 / me=hex / subme=8 / psy=1 / psy_rd=1.00:0.00 / mixed_ref=1 / me_range=16 / chroma_me=1 / trellis=2 / 8x8dct=1 / cqm=0 / deadzone=21,11 / fast_pskip=1 / chroma_qp_offset=-2 / threads=9 / lookahead_threads=1 / sliced_threads=0 / nr=0 / decimate=1 / interlaced=0 / bluray_compat=0 / constrained_intra=0 / bframes=3 / b_pyramid=2 / b_adapt=1 / b_bias=0 / direct=3 / weightb=1 / open_gop=0 / weightp=2 / keyint=600 / keyint_min=60 / scenecut=40 / intra_refresh=0 / rc_lookahead=50 / rc=cbr / mbtree=1 / bitrate=5000 / ratetol=1.0 / qcomp=0.60 / qpmin=0 / qpmax=69 / qpstep=4 / vbv_maxrate=5000 / vbv_bufsize=3571 / nal_hrd=none / filler=0 / ip_ratio=1.40 / aq=1:1.00
Language                    : English
Default                     : Yes
Forced                      : Yes
Color range                 : Limited
Color primaries             : BT.709
Transfer characteristics    : BT.709
Matrix coefficients         : BT.709

Информация о аудио (подробно)

ID                          : 2
Format                      : AC-3
Format/Info                 : Audio Coding 3
Commercial name             : Dolby Digital
Codec ID                    : A_AC3
Duration                    : 2 h 41 min
Bit rate mode               : Constant
Bit rate                    : 384 kb/s
Channel(s)                  : 2 channels
Channel layout              : L R
Sampling rate               : 48.0 kHz
Frame rate                  : 31.250 FPS (1536 SPF)
Compression mode            : Lossy
Stream size                 : 443 MiB (8%)
Title                       : AC3 2.0
Language                    : English
Service kind                : Complete Main
Default                     : Yes
Forced                      : Yes
Описание:
Вашему вниманию предлагается очередной игровой фильм по вселенной Dead Space, созданный на основе игры «Dead Space Extraction» (думаю, немногие помнят об этой игре, и ещё меньше тех, у кого была возможность в неё поиграть). Да, таких фильмов сейчас много, а отличие моего от остальных в том, что я постарался максимально передать сюжет, который пересекается с анимированным комиксом и [url=tracker.php?nm=dead%20space%20downfall]мультфильмом Downfall[/url], но показывает нам историю появления Обелиска на Ишимуре с иного ракурса, а также рассказывает кусочек истории исчезновения Николь.

Доп. информация

При прохождении и записи сложилось впечатление, что игру делали на коленке и второпях. Сложно было поверить, что эти же самые люди подарили нам оригинальный Dead Space.
Отсутствующие текстуры, недозаписанные диалоги, реплики невпопад, либо просто накладыввающиеся друг на друга диалоги. Понимаю, что большинство их тех, кто играл, даже не заметили этого, с учётом динамики происходящего на экране, но при детальной работе с материалом меня это жутко коробило.
При создании, как и всегда, упор делал не на банальном склеивании скриптовых сцен, а на построении максимально логичной цепочки рассказа истории, но с учётом всех недостатков самой игры. Поправил максимум огрехов, какие были в моих силах, в особенности по части звука.
Например, убрал накладывающие реплики в моменте побега с Эгиды.
Также довольно долго пришлось собирать по кусочкам реплики в зоне карантина на Ишимуре - там и Николь говорила невпопад движению губ, и звуки надевания костюма не подходили движениям персонажа - и таких моментов уйма раскидана по всей игре - всего не упомнить.
Создатель видео и автор перевода: Никита «Brandon Heat» Хромов.
По умолчанию выставлены русские субтитры.
По просьбам трудящихся добавлены английские субтитры.
Для прожжённых фанатов добавлены субтитры на языке Обелиска.
Веб-версию без субтитров можно посмотреть тут.
Веб-версию с субтитрами можно посмотреть тут.
Качество, разумеется, не такое как в раздаче, но можно посмотреть на карманном устройстве.
Другие мои фильмы по серии «Dead Space»:
Игрофильм по Dead Space
Анимированный комикс
Игрофильм по Dead Space 2: Ignition
Игрофильм по Dead Space 2
Игрофильм по Dead Space 3
Приятного просмотра!

Скриншоты

Скачать Photoshop

Post 01-Aug-2020 16:05

[Quote]

Doom Eternal
Год выпуска: 2020
Создатель видео: Karmik Koala
Продолжительность: 09:08:50, 09:47:52
Субтитры: русские
Язык озвучки : русский
Качество: HD
Формат: MP4
Информация о видео: H264 AVC, 1920 x 1080, 60к/с
Информация о аудио: AAC, Стерео, 44.100кГц, 126кб/с
Краткое описание: Видеопрохождение Doom Eternal
Описание:
Doom Eternal (стилизованно под DOOM Eternal) — компьютерная игра в жанре шутера от первого лица. Игра разработана компанией id Software, а издателем выступила компания Bethesda Softworks. Анонс игры состоялся на выставке E3 2018. Выход игры состоялся в 2020 году на платформах Windows, PlayStation 4 и Xbox One и в сервисе Google Stadia, позже ожидается выпуск версии для Nintendo Switch.
Doom Eternal является частью серии игр Doom и прямым сиквелом компьютерной игры Doom 2016 года. В рамках сюжетной кампании игрок вновь берет на себя роль Палача Рока, а события игры разворачиваются спустя 2 года после событий, произошедших на Марсе. Палач должен остановить Культ Деаг, который вместе с перешедшей на сторону Ада корпорацией ОАК собираются уничтожить человечество.

Скриншоты



Скачать Photoshop

Post 10-Jul-2020 23:05

[Quote]

The Last of Us. Part 2
Год выпуска: 2020
Создатель видео: DamageMaster Z
Продолжительность: 02:42:09
Субтитры: русские
Язык озвучки : английский
Качество: HD
Формат: MP4
Информация о видео: 1920x1080
Информация о аудио: 256
Краткое описание: Видеопрохождение The Last of Us. Part 2
Описание:
The Last of Us. Part II - видеоигра в жанре survival horror и стелс-экшен от третьего лица. Сюжет повествует о пост-апокалиптическом мире.

Скриншоты

Скачать Photoshop

Post 03-Jul-2020 18:25

[Quote]

Grand Theft Auto 2 (GTA 2) [PC, Полное прохождение]
Год выпуска: 2017
Создатель видео: Юрий Державин (Derzhavin.PLAY)
Сайт: YouTube - Derzhavin.PLAY
Продолжительность: 12:53:34
Субтитры: русские
Язык озвучки : английский
Качество: HD
Формат: MP4
Информация о видео: MPEG4 Video (H264), 1280x960, 4-20 Mbps, 30 FPS
Информация о аудио: AAC, 48000 Hz, stereo, 317 kbps
Краткое описание: Полное, качественное прохождение игры Grand Theft Auto 2
Описание: Пройдены все миссии, пройдены все буйства, собраны все особые метки. При прохождении не использовались читы, трейнеры. Версия игры при прохождении - оригинальное издание в России от компании "Бука".
Доп. информация: Автор прохождения - Юрий Державин (Derzhavin.PLAY). Если понравилось данное прохождение - подпишись на мой канал на YouTube и расскажите о нём своим друзьям!
Плейлист на канале Derzhavin.PLAY
Раздача ведётся с 16 до 22 по МСК!

Другие раздачиGrand Theft Auto 1 [Полное прохождение]
Grand Theft Auto 1: London 1969 [Полное прохождение]
Grand Theft Auto 1: London 1961 [Полное прохождение]
Grand Theft Auto 2 [Полное прохождение]

Скриншоты

Скачать Photoshop

Post 11-Jun-2020 10:15

[Quote]

The Elder Scrolls V Skyrim - Special Edition (пейзажи)
Год выпуска: 2020
Продолжительность: 00:50:28
Субтитры: нет
Язык озвучки : нет
Качество: HD
Формат: MKV
Информация о видео: AVC (x264), 1920x1080, 30 fps, 10000 Kbps
Информация о аудио: MP3, 2 channels, 48.0 kHz, 320 Kbps
Описание:
Это видео с живописными видами пейзажей из видео игры The Elder Scrolls V Skyrim - Special Edition. В этом видео демонстрируются некоторые места в игре, которые по мнению автора являются самыми впечатляющими. Конечно это только небольшая часть The Elder Scrolls V Skyrim природу которого можно много снимать. Звуковой ряд представляет собой официальные саундтреки из The Elder Scrolls V Skyrim, заменяя звук из самой игры.

Скриншоты

Скачать CorelDraw

Post 27-May-2020 16:05

[Quote]

Call of Duty 2
Продолжительность: 02:47:00 (средняя продолжительность ролика 10 мин.)
Субтитры: нет
Язык озвучки : английский
Качество:
Лучшее - WE ARE Call of Duty 2.mp4
Видео:1280x720, Битрейт:6000 Кбит/сек, Частота кадров:30 кадров/сек, AVC
Аудио: 192 Кбит/сек, 48 КГц, 2 канала, MPEG Audio (Version 1) Layer 3
Худшее - knallen_met_knaller.avi
Видео: 720х480, Битрейт:3125 Кбит/сек, Частота кадров:29,97 кадров/сек, MPEG-4 Visual (XviD)
Аудио: 1024 Кбит/сек, 32 КГц, 2 канала, РСМ
Формат: avi, mp4, wmv
Описание: Представляю вашему вниманию подборку качественных, профессиональных GMV - музыкальный видеоклипов (так называемых "мувиков"), сделанных на основе сетевой игры Call of Duty 2.

Скриншоты

Скачать CorelDraw

Post 23-May-2020 03:40

[Quote]

Антон Логвинов ( Спонсорские видео )
Год выпуска: 2016-2020
Создатель видео: Антон Логвинов
Продолжительность: 8:51:25
Субтитры: нет
Язык озвучки : русский
Качество: HD
Формат: MP4
Информация о видео: MPEG4 (H264), 1920x1080, 1349 Kbps, 30fps MPEG4 (H264), 1920x1080, 8383 Kbps, 60fps
Информация о аудио: AAC, 44.1KHz, stereo, 192kbps MPEG4 Audio 48KHz stereo 256 kbps
Описание:
Добро пожаловать на самый позитивный канал об играх, кино и путешествиях! Я - Антон Логвинов, продюсер FXA Studio, некогда создатель первого видеожурнала об играх, а теперь блоггер и независимый журналист. Когда-то в 2004 я первым начал рассказывать об играх в видеоформате в рамках самого популярного журнала в Европе, который смотрели несколько поколений зрителей (собственно, этим я и продолжаю заниматься до сих пор). Однако это было только начало. С 2012 года я на Youtube и рассказываю о том, что мне интересно - играх, кино, путешествиях, автомобилях. Подписывайтесь! )

Скриншоты

Скачать Photoshop

Post 19-May-2020 16:10

[Quote]

Destiny 2 (Видео-прохождение) (Без комментариев) [PC, RUS, 1080p, 60 fps]
Год выпуска: 2017
Создатель видео: Tayirus
Продолжительность: 02:31:33
Субтитры: русские
Язык озвучки : русский
Качество: 1080p
Формат: MP4
Информация о видео: MPEG4 Video (H264) 1920x1080 59.94fps 14415kbps
Информация о аудио: AAC 48000Hz stereo 192kbps
Краткое описание: Прохождение
Описание:
Видео-прохождение игры Destiny 2 без комментариев и без лишнего геймплея, максимум сюжета.
В данной раздаче пока представлено только прохождение ванильной версии Destiny 2, в будущем планируется добавление всех остальных дополнений игры.
Доп. информация:
Также всё представленное выкладывается и на моём ютьюб канале, вот Мой канал

Скриншоты




 

The time now is: Today 22:26

All times are GMT + 4 Hours