Search found 304 matches

Author Message

nikola120

Post 24-Dec-2021 17:38

[Quote]



Календари на 2022 от Koaress

Год выпуска: 2021
Формат:PSD, JPEG
Разрешение: 4961х3508
Количество:40
Тематика: Календари
Описание:
Подборка календарей на 2022 от Koaress в формате А4




nikola120

Post 15-Dec-2021 09:49

[Quote]



Календари с тиграми на 2022 год

Год выпуска: 2021
Формат: JPEG
Разрешение: 4961х3508
Количество:5
Тематика: Календари
Описание:
Подборка календарей на 2022



TEST

Post 06-Dec-2021 22:05

[Quote]

Красный спорт / Советский спорт
-Год издания: 1943, 1949, 1951, 1956, 1958, 1972
Главные редакторы: Котельников Б.Б., Киселев Н.С.
Жанр: Спортивная газета
Издатель: Всесоюзный комитет по делам физкультуры и спорта при Совете Министров СССР и ВЦСПС-Язык: Русский
Формат: PDF
Качество: Отсканированные страницы
Количество номеров: 83
Количество страниц: 4-8-Описание:
«Советский спорт» — ежедневная российская газета; старейшее из ныне выходящих спортивных периодических изданий в России.
Выходит с 20 июля 1924 года. До 1945 года носило название «Красный спорт».
Учредители газеты: ЗАО «Советский спорт» и Олимпийский комитет России.

Список номеров

1943 - №1-4
1949 - №34-45
1951 - №1-11
1956 - №12-16
1958 - №128-152
1972 - №205-230

Примеры страниц

Доп. информация:
Материал предоставил tomatt22-Красный спорт / Советский спорт (1520 номеров) [1924,1936,1937,1941,1945,1957,1961,1965,1966,1968-2007, PDF/DjVu, RUS]
Советский спорт (803 номера) [2012,2013,2014,2015,2016,2017, PDF, RUS]

TEST

Post 06-Dec-2021 22:05

[Quote]

Творения
Год выпуска: 2005
Фамилия автора: Хлебников
Имя автора: Велимир
Исполнитель: Вадим Максимов
Жанр: поэзия
Прочитано по изданию: Хлебников В. Творения. - М.: Сов. писатель, 1987.
Издательство: Ардис
Категория: аудиокнига
Аудиокодек: MP3
Битрейт: 192 kbps
Частота дискретизации: 44 kHz
Музыкальное сопровождение: присутствует
Время звучания: 4:16
Описание:
Поэт, прозаик, теоретик и исследователь искусства, мыслитель, математик, орнитолог, Велимир Хлебниковво многом опередил свое время. Его гениальные прозрения не укладывались в рамки современной ему науки, гениальные стихи - в рамки существовавших литературных течений, мифопоэтическое мировоззрение - в рамки времени.
В сборник вошли поэмы и избранные стихотворения. В оформлении проекта использована музыка А.Н.Скрябина.

Содержание

ПОЭМЫ
1. Марина Мнишек
2. Поэт
3. Ночь в окопе
4. Ночь перед Советами
5. Настоящее
6. Тиран без "Тэ"
СТИХОТВОРЕНИЯ
1. Птичка в клетке
2. "И я свирел в свою свирель..."
3. "Немь лукает луком немным..."
4. "Там, где жили свиристели..."
5. "Жарбог! Жарбог!.."
6. Крымское. Записи сердца. Вольный размер
7. Скифское
8. Заклятие смехом
9. "Бобэоби пелись губы..."
10. "Кому сказатеньки..."
11. "Чудовище — жилец вершин..."
12. Опыт жеманного
13. "Я не знаю, земля кружится или нет..."
14. "Как два согнутые кинжала..."
15. "Когда умирают кони, дышат..."
16. "Гонимый — кем, почем я знаю?.."
17. Числа
18. Семеро
19. "Мне мало надо!.."
20. Перуну
21. Написанное до войны
22. Тризна
23. Воспоминания
24. Бог 20-го века
25. "Моих друзей летели сонмы..."
26. "Народ поднял верховный жезел..."
27. О свободе
28. "Над глухонемой отчизной: "Не убей!"..."
29. Случай
30. Город будущего
31. Слово о "Эль"
32. Каракурт
33. "Как стадо овец мирно дремлет..."
34. "Э-э! Ы-ым!" - весь в поту..."
35. Иранская песня
36. "С утробой медною..."
37. Союзу молодежи
38. "Детуся! Если устали глаза быть широкими..."
39. Голод
40. Трубите, кричите, несите!
41. "Волга! Волга!.."
42. "Русь зеленая в месяце Ай!.."
43. "Вши тупо молилися мне..."
44. Москва будущего
45. "Если я обращу человечество в часы..."
46. Признание
47. Отказ
48. "Ну, тащися, Сивка..."
49. Всем
50. "Не чертиком масленичным..."
51. "Еще раз, еще раз..."

В проекте использована музыка А.Н. Скрябина:
- Прометей (Поэма огня), соч.60
- Симфония № 2 до минор, соч.29
- 24 Прелюдии, соч.11
Хлебников Велимир - Кол из будущего [Ерисанова Ирина]
Велимир Хлебников - Собрание сочинений в шести томах [2000 - 2006, PDF, RUS]

TEST

Post 06-Dec-2021 22:05

[Quote]

Иванушки Int. - Коллекция (3 LP) Страна-производитель: Russia
Жанр: Pop
Год выпуска: 1996-1999 (2021)
Аудио кодек: WavPack
Тип рипа: image+.cue
Формат записи: 32/192
Формат раздачи: 32/192
Наличие сканов : 600 dpi, JPG
1996 - Конечно ОнКонечно Он Страна-производитель: Russia
Год выпуска: 2021
Производитель: Продюсерский Центр Игоря Матвиенко
Номер по каталогу: Vol. 5.6, Yellow
Продолжительность: 46:33

Треклист:

A1 Тучи
A2 Вселенная
A3 Малина
A4 Колечко
A5 Миллионы огней
A6 Она
B1 Подсолнух
B2 Конечно он
B3 Где-то
B4 Тучи (feat. оркестр 'Стихия', трио 'Вибрация' 2005)
B5 Где-то (концерт 'Иванушки в Москве' 2001)


Оцифровка выполнена: bruk67 (автором раздачи)
Класс состояния винила: Mint
Устройство воспроизведения: YAMAHA GT-2000 + Oyaide MJ-12 [url=viewtopic.php?p=73567331#73567331]+ Clamp 580 g[/url]
Звукосниматель: Dynavector XX2MKII + Oyaide HSR-AG
Предварительный усилитель: YAMAHA C-4
АЦП: M-Audio ProFire 610
Программа-оцифровщик: Sound Forge Pro 15 Suite
Обработка: Неcколько мелких щелчков

Уровень/Спектр/АЧХ:



DR:

foobar2000 1.4.5 / Замер динамического диапазона (DR) 1.1.1Дата отчёта:  2021-12-04 02:20:58
--------------------------------------------------------------------------------Анализ: Иванушки Int. / Конечно Он (LP)--------------------------------------------------------------------------------
DR Пики RMS Продолжительность трека--------------------------------------------------------------------------------DR11 -0.70 дБ -12.72 дБ 4:12 1-ТучиDR10 -0.93 дБ -12.53 дБ 3:43 2-ВселеннаяDR11 -1.57 дБ -13.65 дБ 4:09 3-МалинаDR12 -0.37 дБ -14.12 дБ 3:50 4-КолечкоDR11 -0.32 дБ -12.67 дБ 3:32 5-Миллионы огнейDR11 -0.99 дБ -16.48 дБ 3:41 6-ОнаDR11 -0.25 дБ -12.35 дБ 4:45 7-ПодсолнухDR11 -0.22 дБ -11.92 дБ 4:16 8-Конечно онDR11 -0.59 дБ -13.88 дБ 4:24 9-Где-тоDR10 -1.45 дБ -13.59 дБ 5:09 10-Тучи (feat. оркестр 'Стихия', трио 'Вибрация' 2005)DR11 -0.68 дБ -13.62 дБ 4:52 11-Где-то (концерт 'Иванушки в Москве' 2001)--------------------------------------------------------------------------------
Количество треков: 11Реальные значения DR: DR11
Частота: 192000 ГцКаналов: 2Разрядность: 32Битрейт: 12288 кбит/сКодек: PCM================================================================================

CUE:

REM GENRE PopREM DATE 1996REM COMMENT Продюсерский Центр Игоря Матвиенко - Vol. 5.6, Remastered, Yellow, Russia 2021, VINYLRIP by bruk67PERFORMER "Иванушки Int."TITLE "Конечно Он (LP)"FILE "Иванушки Int. - Конечно Он (LP).wav" WAVE  TRACK 01 AUDIO    TITLE "Тучи"    PERFORMER "Иванушки Int."    INDEX 01 00:00:00  TRACK 02 AUDIO    TITLE "Вселенная"    PERFORMER "Иванушки Int."    INDEX 01 04:11:67  TRACK 03 AUDIO    TITLE "Малина"    PERFORMER "Иванушки Int."    INDEX 01 07:54:37  TRACK 04 AUDIO    TITLE "Колечко"    PERFORMER "Иванушки Int."    INDEX 01 12:03:47  TRACK 05 AUDIO    TITLE "Миллионы огней"    PERFORMER "Иванушки Int."    INDEX 01 15:53:70  TRACK 06 AUDIO    TITLE "Она"    PERFORMER "Иванушки Int."    INDEX 01 19:26:20  TRACK 07 AUDIO    TITLE "Подсолнух"    PERFORMER "Иванушки Int."    INDEX 01 23:07:09  TRACK 08 AUDIO    TITLE "Конечно он"    PERFORMER "Иванушки Int."    INDEX 01 27:52:09  TRACK 09 AUDIO    TITLE "Где-то"    PERFORMER "Иванушки Int."    INDEX 01 32:08:01  TRACK 10 AUDIO    TITLE "Тучи (feat. оркестр 'Стихия', трио 'Вибрация' 2005)"    PERFORMER "Иванушки Int."    INDEX 01 36:32:28  TRACK 11 AUDIO    TITLE "Где-то (концерт 'Иванушки в Москве' 2001)"    PERFORMER "Иванушки Int."    INDEX 01 41:41:09
1997 - Твои ПисьмаТвои Письма Страна-производитель: Russia
Год выпуска: 2021
Производитель: Продюсерский Центр Игоря Матвиенко
Номер по каталогу: Vol. 8.6, Blue
Продолжительность: 44:08

Треклист:

A1 Письма лета
A2 Письма от Иванушек
A3 Кукла
A4 Наташка с улицы Семашко
A5 Йо-хо-хо
B1 Девчонка-девчоночка
B2 Поверь, мне тоже очень жаль
B3 Я её ищу
B4 Младшая сестрёнка
B5 Облака


Оцифровка выполнена: bruk67 (автором раздачи)
Класс состояния винила: Mint
Устройство воспроизведения: YAMAHA GT-2000 + Oyaide MJ-12 [url=viewtopic.php?p=73567331#73567331]+ Clamp 580 g[/url]
Звукосниматель: Dynavector XX2MKII + Oyaide HSR-AG
Предварительный усилитель: YAMAHA C-4
АЦП: M-Audio ProFire 610
Программа-оцифровщик: Sound Forge Pro 15 Suite
Обработка: Неcколько мелких щелчков

Уровень/Спектр/АЧХ:



DR:

foobar2000 1.4.5 / Замер динамического диапазона (DR) 1.1.1Дата отчёта:  2021-12-05 01:36:51
--------------------------------------------------------------------------------Анализ: Иванушки Int. / Твои Письма (LP)--------------------------------------------------------------------------------
DR Пики RMS Продолжительность трека--------------------------------------------------------------------------------DR12 -0.39 дБ -13.69 дБ 4:02 1-Письма летаDR14 -1.63 дБ -18.51 дБ 3:40 2-Письма от ИванушекDR11 -2.29 дБ -14.55 дБ 5:18 3-КуклаDR13 -0.44 дБ -14.43 дБ 4:49 4-Наташка с улицы СемашкоDR9 -2.88 дБ -13.61 дБ 3:56 5-Йо-хо-хоDR12 -0.34 дБ -14.53 дБ 4:52 6-Девчонка-девчоночкаDR12 -0.57 дБ -14.06 дБ 4:24 7-Поверь, мне тоже очень жальDR11 -1.56 дБ -13.49 дБ 4:23 8-Я её ищуDR11 -1.34 дБ -13.72 дБ 4:09 9-Младшая сестрёнкаDR10 -3.85 дБ -16.69 дБ 4:33 10-Облака--------------------------------------------------------------------------------
Количество треков: 10Реальные значения DR: DR11
Частота: 192000 ГцКаналов: 2Разрядность: 32Битрейт: 12288 кбит/сКодек: PCM================================================================================

CUE:

REM GENRE PopREM DATE 1997REM COMMENT Продюсерский Центр Игоря Матвиенко - Vol. 8.6, Remastered, Blue, Russia 2021, VINYLRIP by bruk67PERFORMER "Иванушки Int."TITLE "Твои Письма (LP)"FILE "Иванушки Int. - Конечно Он (LP).wav" WAVE  TRACK 01 AUDIO    TITLE "Письма лета"    PERFORMER "Иванушки Int."    INDEX 01 00:00:00  TRACK 02 AUDIO    TITLE "Письма от Иванушек"    PERFORMER "Иванушки Int."    INDEX 01 04:02:03  TRACK 03 AUDIO    TITLE "Кукла"    PERFORMER "Иванушки Int."    INDEX 01 07:42:07  TRACK 04 AUDIO    TITLE "Наташка с улицы Семашко"    PERFORMER "Иванушки Int."    INDEX 01 13:00:28  TRACK 05 AUDIO    TITLE "Йо-хо-хо"    PERFORMER "Иванушки Int."    INDEX 01 17:49:32  TRACK 06 AUDIO    TITLE "Девчонка-девчоночка"    PERFORMER "Иванушки Int."    INDEX 01 21:45:62  TRACK 07 AUDIO    TITLE "Поверь, мне тоже очень жаль"    PERFORMER "Иванушки Int."    INDEX 01 26:38:00  TRACK 08 AUDIO    TITLE "Я её ищу"    PERFORMER "Иванушки Int."    INDEX 01 31:02:11  TRACK 09 AUDIO    TITLE "Младшая сестрёнка"    PERFORMER "Иванушки Int."    INDEX 01 35:25:37  TRACK 10 AUDIO    TITLE "Облака"    PERFORMER "Иванушки Int."    INDEX 01 39:34:54
1999 - Об этом я буду кричать всю ночьОб этом я буду кричать всю ночь Страна-производитель: Russia
Год выпуска: 2021
Производитель: Продюсерский Центр Игоря Матвиенко
Номер по каталогу: Vol. 13.6, Red
Продолжительность: 42:33

Треклист:

A1 Снегири
A2 Два Океана
A3 Об этом я буду кричать всю ночь
A4 Тополиный пух
A5 Небо
A6 Зима
B1 Дуня-Дуняша
B2 Туман
B3 Рядом ты (Я тебя никогда не забуду)
B4 День Рождения
B5 Тополиный пух (Андрей Харченко Remix)


Оцифровка выполнена: bruk67 (автором раздачи)
Класс состояния винила: Mint
Устройство воспроизведения: YAMAHA GT-2000 + Oyaide MJ-12 [url=viewtopic.php?p=73567331#73567331]+ Clamp 580 g[/url]
Звукосниматель: Dynavector XX2MKII + Oyaide HSR-AG
Предварительный усилитель: YAMAHA C-4
АЦП: M-Audio ProFire 610
Программа-оцифровщик: Sound Forge Pro 15 Suite
Обработка: Неcколько мелких щелчков

Уровень/Спектр/АЧХ:



DR:

foobar2000 1.4.5 / Замер динамического диапазона (DR) 1.1.1Дата отчёта:  2021-12-06 20:19:55
--------------------------------------------------------------------------------Анализ: Иванушки Int. / Об этом я буду кричать всю ночь (LP)--------------------------------------------------------------------------------
DR Пики RMS Продолжительность трека--------------------------------------------------------------------------------DR9 0.00 дБ -12.59 дБ 4:21 1-СнегириDR11 -0.27 дБ -11.95 дБ 3:51 2-Два ОкеанаDR9 -0.31 дБ -11.08 дБ 3:31 3-Об этом я буду кричать всю ночьDR10 -0.15 дБ -13.86 дБ 3:52 4-Тополиный пухDR10 -0.88 дБ -11.63 дБ 3:54 5-НебоDR10 -0.40 дБ -12.08 дБ 3:26 6-ЗимаDR10 -0.31 дБ -12.35 дБ 4:10 7-Дуня-ДуняшаDR11 -0.69 дБ -12.41 дБ 3:39 8-ТуманDR10 -0.65 дБ -12.88 дБ 4:07 9-Рядом ты (Я тебя никогда не забуду)DR10 -0.17 дБ -11.28 дБ 3:32 10-День РожденияDR9 -0.45 дБ -11.32 дБ 4:10 11-Тополиный пух (Андрей Харченко Remix)--------------------------------------------------------------------------------
Количество треков: 11Реальные значения DR: DR10
Частота: 192000 ГцКаналов: 2Разрядность: 32Битрейт: 12288 кбит/сКодек: PCM================================================================================

CUE:

REM GENRE PopREM DATE 1999REM COMMENT Продюсерский Центр Игоря Матвиенко - Vol. 13.6, Remastered, Red, Russia 2021, VINYLRIP by bruk67PERFORMER "Иванушки Int."TITLE "Об этом я буду кричать всю ночь (LP)"FILE "Иванушки Int. - Об этом я буду кричать всю ночь (LP).wav" WAVE  TRACK 01 AUDIO    TITLE "Снегири"    PERFORMER "Иванушки Int."    INDEX 01 00:00:00  TRACK 02 AUDIO    TITLE "Два Океана"    PERFORMER "Иванушки Int."    INDEX 01 04:21:16  TRACK 03 AUDIO    TITLE "Об этом я буду кричать всю ночь"    PERFORMER "Иванушки Int."    INDEX 01 08:12:20  TRACK 04 AUDIO    TITLE "Тополиный пух"    PERFORMER "Иванушки Int."    INDEX 01 11:43:00  TRACK 05 AUDIO    TITLE "Небо"    PERFORMER "Иванушки Int."    INDEX 01 15:35:01  TRACK 06 AUDIO    TITLE "Зима"    PERFORMER "Иванушки Int."    INDEX 01 19:28:39  TRACK 07 AUDIO    TITLE "Дуня-Дуняша"    PERFORMER "Иванушки Int."    INDEX 01 22:54:38  TRACK 08 AUDIO    TITLE "Туман"    PERFORMER "Иванушки Int."    INDEX 01 27:04:26  TRACK 09 AUDIO    TITLE "Рядом ты (Я тебя никогда не забуду)"    PERFORMER "Иванушки Int."    INDEX 01 30:43:33  TRACK 10 AUDIO    TITLE "День Рождения"    PERFORMER "Иванушки Int."    INDEX 01 34:50:21  TRACK 11 AUDIO    TITLE "Тополиный пух (Андрей Харченко Remix)"    PERFORMER "Иванушки Int."    INDEX 01 38:22:42

TEST

Post 06-Dec-2021 22:05

[Quote]

Orbit Culture / Shaman
Формат записи/Источник записи: [TR24][OF]
Носитель: Qobuz
Издание: EP
Год издания/переиздания диска: 2021
Жанр: Melodic-Death-Metal, Groove-Metal, Death-Metal
Издатель (лейбл): Seek & Strike
Продолжительность: 00:25:23
Наличие сканов в содержимом раздачи: Только обложка альбома
Треклист:
01. Mast of the World
02. Flight of the Fireflies
03. Carvings
04. Strangler
05. A Sailor's Tale
Контейнер: FLAC (*.flac)
Тип рипа: tracks
Разрядность: 24/44,1
Формат: PCM
Количество каналов: 2.0

Лог проверки качества (DR4)

foobar2000 1.5.4 / Замер динамического диапазона (DR) 1.1.1Дата отчёта:  2021-12-01 20:19:15
--------------------------------------------------------------------------------Анализ: Orbit Culture / Shaman (EP)--------------------------------------------------------------------------------
DR Пики RMS Продолжительность трека--------------------------------------------------------------------------------DR4 0.00 дБ -5.40 дБ 5:27 01-Mast of the WorldDR3 0.00 дБ -4.06 дБ 4:51 02-Flight of the FirefliesDR4 0.00 дБ -4.37 дБ 4:30 03-CarvingsDR4 0.00 дБ -4.95 дБ 3:27 04-StranglerDR4 0.00 дБ -5.07 дБ 7:11 05-A Sailor's Tale--------------------------------------------------------------------------------
Количество треков: 5Реальные значения DR: DR4
Частота: 44100 ГцКаналов: 2Разрядность: 24Битрейт: 1742 кбит/сКодек: FLAC================================================================================
Источник (релизер): Спасибо Newcrew

TEST

Post 06-Dec-2021 22:05

[Quote]

Yusef Lateef / Into Something
Формат записи/Источник записи: [TR24][OF]
Издание: Remastered
Год издания/переиздания диска: 1961/2021
Жанр: Jazz
Издатель (лейбл): Music Manager
Продолжительность: 00:41:03
Наличие сканов в содержимом раздачи: Нет
Треклист:
01 - Rasheed 05:21
02 - When You're Smiling 04:42
03 - Water Pistol 05:38
04 - You've Changed 04:52
05 - I'll Remember April 06:50
06 - Koko's Tune 06:28
07 - P Bouk 07:12
Контейнер: FLAC (*.flac)
Тип рипа: tracks
Разрядность: 24/48
Количество каналов: 2.0

Лог проверки качества

Lossless Audio Checker 2.0.7 logfile from Monday 06 December 2021 03:47:47 PM
File: D:\Temp\Download\Yusef Lateef - Into Something - 1961-2021 (24-48)\1. Rasheed.flacResult: Clean
File: D:\Temp\Download\Yusef Lateef - Into Something - 1961-2021 (24-48)\2. When You're Smiling.flacResult: Clean
File: D:\Temp\Download\Yusef Lateef - Into Something - 1961-2021 (24-48)\3. Water Pistol.flacResult: Clean
File: D:\Temp\Download\Yusef Lateef - Into Something - 1961-2021 (24-48)\4. You've Changed.flacResult: Clean
File: D:\Temp\Download\Yusef Lateef - Into Something - 1961-2021 (24-48)\5. I'll Remember April.flacResult: Clean
File: D:\Temp\Download\Yusef Lateef - Into Something - 1961-2021 (24-48)\6. Koko's Tune.flacResult: Clean
File: D:\Temp\Download\Yusef Lateef - Into Something - 1961-2021 (24-48)\7. P Bouk.flacResult: Clean

DR

foobar2000 1.4.6 / Dynamic Range Meter 1.1.1log date: 2021-10-28 03:28:05
--------------------------------------------------------------------------------Analyzed: Yusef Lateef / Into Something--------------------------------------------------------------------------------
DR Peak RMS Duration Track--------------------------------------------------------------------------------DR14 -0.05 dB -19.23 dB 5:22 01-RasheedDR16 0.00 dB -20.27 dB 4:42 02-When You're SmilingDR14 -0.40 dB -17.97 dB 5:39 03-Water PistolDR13 -0.06 dB -17.99 dB 4:53 04-You've ChangedDR13 -0.02 dB -16.69 dB 6:50 05-I'll Remember AprilDR15 -0.07 dB -17.99 dB 6:28 06-Koko's TuneDR14 -0.35 dB -16.97 dB 7:13 07-P Bouk--------------------------------------------------------------------------------
Number of tracks: 7Official DR value: DR14
Samplerate: 48000 HzChannels: 2Bits per sample: 24Bitrate: 1387 kbpsCodec: FLAC================================================================================

Скриншот спектра частот

Источник (релизер): Qobuz

Состав

Yusef Lateef - tenor saxophone, flute (track 5), oboe (track 1)
Barry Harris - piano (tracks 1, 4, 5 & 7)
Herman Wright - bass
Elvin Jones - drums

Об исполнителе (группе)

https://en.wikipedia.org/wiki/Yusef_Lateef

Об альбоме (сборнике)

https://en.wikipedia.org/wiki/Into_Something
This superior set (which has been reissued on CD) features Yusef Lateef on some straight-ahead tunes, including "When You're Smiling (The Whole World Smiles with You)," "I'll Remember April," and "You've Changed." In addition, there are some more adventurous and exotic works too, making this a well-rounded program. Lateef is joined by pianist Barry Harris, bassist Herman Wright, and drummer Elvin Jones for a particularly memorable performance.

TEST

Post 06-Dec-2021 22:05

[Quote]

Crysis 2 Remastered / Crysis 3 Remastered
Год выпуска: 2021, октябрь
Жанр: Action, Shooter
Разработчик: Crytek, Saber Interactive
Издатель: Crytek GmbH
Формат образа: .NSZ (сжато ~20%, установленный объём 22.23 ГБ)
Версия игры: 1.2.0
Язык интерфейса: Русский, Английский [RUS / ENG / Multi 8]
Озвучка: [url=viewtopic.php?p=79491015#79491015]русская[/url], английская
Работоспособность проверена: Да (на 13.0.0, Atmosphere 1.1.1)
Мультиплеер: нет
Возрастной рейтинг: 16+
Описание: Долгожданная дилогия Crysis 2 / 3 Remastered, продолжение Crysis Remastered для Nintendo Switch включает в себя следующие две игры:
Crysis 2 Remastered:
Пришельцы вернулись на планету, терзаемую климатическими катаклизмами. Они превратили Нью-Йорк в дымящиеся руины, а теперь собираются истребить все человечество. И только вы можете остановить их вторжение. Облачитесь в улучшенный нанокостюм версии 2.0, вооружитесь подходящим оружием и обретите новые способности, чтобы одержать победу в битве за выживание человечества.
Crysis 3 Remastered:
Земле вновь нужен герой. В роли суперсолдата Пророка вы продолжаете поиски альфа-цефа и получаете новое задание: теперь вам нужно вывести на чистую воду корпорацию CELL, которая превратила Нью-Йорк в джунгли, накрытые гигантским куполом. Побывайте в семи уникальных округах и одержите верх над врагами, используя невероятную мощь своего нанокостюма, или обходите их стороной, маскируясь и действуя незаметно. Вооружитесь смертоносным луком «Хищник» и используйте его, чтобы одержать победу. Помните: для спасения мира все средства хороши.
Доп. информация писал(а):Улучшение графики для [url=viewtopic.php?p=82259987#82259987]Crysis 2[/url].

TEST

Post 06-Dec-2021 22:05

[Quote]

Hevi

Жанр: Instrumental Hip-Hop/Chillhop/Lo-fi
Страна исполнителя (группы): Turkey
Год издания: 2019-2021
Аудиокодек: MP3
Тип рипа: tracks
Битрейт аудио: 320 kbps
Продолжительность: 03:38:06
Наличие сканов в содержимом раздачи: нет

Albums

2021 - Hevi - Before It’s Late [320 kbps]

Продолжительность: 00:32:55
01. Late
02. These Are The Nights
03. Imaginary (feat. Kurt Stewart, S N U G)
04. We Had Better Days (feat. Softy)
05. Lucid (feat. Naga)
06. Beyond the Dreams (feat. Stuffed Tomato)
07. Finally Breathing (feat. Redmatic)
08. Mind At Ease
09. Alone (feat. INKY!)
10. Bedtime (feat. probablyasleep)
11. Lonely Nights (feat. Trxxshed)
12. Yesterday (feat. Trxxshed)
13. Leave This Town (feat. tender spring)
Доп. информация: Bandcamp

2021 - Hevi - Before It’s Late, Pt. 2 [320 kbps]

Продолжительность: 00:26:09
01. Morning Brew (feat. Paper Ocean)
02. Summer Evenings (feat. Dimension 32)
03. Warm Waves (feat. Hoogway)
04. Looking Back (feat. Mondo Loops)
05. And Then I Woke Up (feat. no one’s perfect)
06. Dusk (feat. Lawrence Walther)
07. Circles (feat. Kurt Stewart)
08. Ghosts (feat. no one’s perfect)
09. Drift (feat. no one’s perfect)
10. Homecoming (feat. Bert)
Доп. информация: Bandcamp

2021 - Hevi - When I’m Gone [320 kbps]

Продолжительность: 00:20:49
01. Ethereal (feat. H.1)
02. Above Skies (feat. H.1)
03. Don’t Hurt Yourself
04. When I’m Gone
05. Dream On (feat. Casiio)
06. I’m Sorry
07. Closer
08. Frames
09. Blurry
Доп. информация: Bandcamp

Collaborations

2020 - Hevi & Roadetrix - Everything I Had, Vol. 1 [320 kbps]

Продолжительность: 00:42:45
01. Late Nights
02. You're Not Alone
03. Remembering the Days (feat. Stuffed Tomato)
04. Treehouse
05. Stay
06. Was It Something I Said
07. A Beat I Made When I Was Feeling Bad
08. The Tear in My Heart
09. Beloved One
10. Help You Out
11. Should've Been the One (feat. Lunafreya)
12. Highschool Memories
13. Letter from Kaori
14. Endless Conversations
15. Erased, Everything
16. Growing Up (feat. Stuffed Tomato)
17. Sing to Me (feat. Kainbeats)
18. Everything I Had

2021 - H.1 & Hevi - Indigo Night [320 kbps]

Продолжительность: 00:34:55
01. A Way Home
02. Letters for You
03. Indigo Night
04. Moonlight
05. Timeshift
06. Chrono
07. Heart
08. November
09. Leaves
10. Before You Fall Asleep
11. Would I See Tomorrow
12. Hollow Moon
13. Wake Up
14. Floating
15. When It’s All Gone
Доп. информация: Bandcamp

EP's

2019 - Hevi - stray lights [320 kbps]

Продолжительность: 00:08:37
01. pillowtalk
02. spell
03. distances
04. karma

2020 - Hevi - Nostalgia [320 kbps]

Продолжительность: 00:12:09
01. All These Wounds (feat. Refeeld)
02. We Shall Meet Again (feat. Stuffed Tomato)
03. Fireflies (feat. Ai Means Love.)
04. Nostalgia
05. End Credits

2020 - Hevi & KAINBEATS - Drifting Away [320 kbps]

Продолжительность: 00:11:21
01. Wishing, Waiting
02. If You Knew
03. Runaway
04. Uncertainty
05. Empathise
Доп. информация: Bandcamp

2021 - Hevi - Lucidity [320 kbps]

Продолжительность: 00:13:33
01. Falling Star (feat. Dimension 32)
02. Lonely Roads (feat. no one's perfect)
03. Nightlamp (feat. cxlt.)
04. One Two Three (feat. no one's perfect)
05. Wish We Could Turn Back Time

Singles

2019 - Hevi - Always Need You [320 kbps]

Продолжительность: 00:02:22
01. Always Need You

2019 - Hevi - City Lights [320 kbps]

Продолжительность: 00:02:29
01. City Lights

2019 - Hevi - pictures of you [320 kbps]

Продолжительность: 00:02:19
01. pictures of you

2020 - Hevi & Artemis Orion - 3 AM [320 kbps]

Продолжительность: 00:01:36
01. 3 AM

2020 - Hevi & Artemis Orion - 17 [320 kbps]

Продолжительность: 00:02:19
01. 17

2021 - Hevi & S N U G - paper planes [320 kbps]

Продолжительность: 00:03:39
01. paper planes

TEST

Post 06-Dec-2021 22:05

[Quote]

Цари. Романовы. История династии
Год издания: 2013
Автор: Радзинский Э. С.
Жанр или тематика: биографии и мемуары, историческая литература, династия Романовых, история монархии, политические интриги, Российская империя
Издательство: М.: АСТ
ISBN: 978-5-17-078028-0
Язык: Русский
Формат: PDF/EPUB/FB2
Качество: Издательский макет или текст (eBook)
Интерактивное оглавление: Да
Количество страниц: 733
Описание: В книгу Эдварда Радзинского вошли три лучших романа о представителях царской семьи. Содержит: «Последняя из дома Романовых», «Николай II», «Александр II».

Примеры страниц

Оглавление

Без оглавления.

TEST

Post 06-Dec-2021 22:05

[Quote]

Treasures of the Aegean
Год выпуска: 2021, ноябрь
Жанр: Platformer, Adventure, Puzzle
Разработчик: Undercoders
Издатель: Numskull Games
Формат образа: .NSZ (сжато ~26%, установленный объём 1.30 ГБ)
Версия игры: 1.0.7
Язык интерфейса: Английский [ENG]
Озвучка: не озвучивается
Работоспособность проверена: Да (на 13.1.0, Atmosphere 1.2.4)
Мультиплеер: нет
Возрастной рейтинг: 12+
Описание: Что произошло с минойской цивилизацией? Присоединяйтесь к героям этого исторического экшн-триллера!
Спец по паркуру Мария Тейлор и охотник за сокровищами Джеймс Эндрю отправляются искать ключи к тайнам забытого королевства, попавшего во временную петлю. Исследуйте открытый нелинейный мир в изящной ручной рисовке, находите ценные реликвии, начертите карту утраченного острова и собирайте новые улики в каждой временной петле, чтобы древнее пророчество сбылось. Решайте головоломки и узнайте, что разозлило старых богов — и ваше путешествие поможет миру вырваться из цепи бесконечных повторений.
  • Тайны минойского катаклизма. В 1639 до н. э. мощный взрыв сотряс до основания минойскую цивилизацию и погрузил под воду колыбель древней империи, вулканический остров Тира. Но кажется, история готова повториться: остров вновь поднялся на поверхность, и новая катастрофа вот-вот произойдет. Почему минойская культура была настолько передовой для своего времени? Предвидел ли король Минос падение империи? И можно ли остановить извержение вулкана на Тире? Есть только один способ узнать!
  • Затонувший остров в петле времени.. Погребенный в морских глубинах много веков, остров Тира полон исторических сокровищ и тайн, которые ждут того, кто их раскроет. Отправьтесь в утраченную минойскую цитадель, проберитесь через затонувшую оттоманскую флотилию и отворите двери подземного дворца — узнайте о некогда жившем здесь народе и его трагической судьбе. Используйте сбой в течении времени, чтобы собрать сведения, нанести их на карту и решить важнейшие загадки, чтобы мир снова не сотрясся от страшного взрыва и время не побежало вновь по тому же кругу!
  • Тонкий расчет и решение головоломок! Приготовьтесь к головокружительным приключениям и бросайтесь вперед, через недружелюбную местность, полную препятствий. Прокатывайтесь по крутым склонам, взбирайтесь по высоким стенам, перепрыгивайте через барьеры, раскачивайтесь на лианах и перелетайте через глубокие рвы, странствуя по прекрасному открытому миру. В каждом уголке острова таится артефакт, подсказка или кусок головоломки, которую нужно решить, чтобы спасти мир от катастрофы!

TEST

Post 06-Dec-2021 22:05

[Quote]

Hotshot Racing
Год выпуска: 2020, сентябрь
Жанр: Racing, Arcade
Разработчик: Sumo Digital Ltd, Lucky Mountain Games
Издатель: Curve Digital
Формат образа: .NSZ (сжато ~25%, установленный объём 3.29 ГБ)
Версия игры: 1.0.5
Язык интерфейса: Русский, Английский [RUS / ENG / Multi 9]
Озвучка: английская
Работоспособность проверена: Да (на 11.0.0, Atmosphere 0.17.0)
Мультиплеер: до 8 игроков
Возрастной рейтинг: 6+
Описание: Hotshot Racing — это изнуряюще быстрые аркадные гонки с дрифтом, четкой ретро-графикой и невероятным чувством скорости. Насладитесь головокружительной поездкой!
  • 16 треков с крутыми поворотами и прямыми участками для жаркой гонки. Вас ждут разнообразные пейзажи, яркие краски и бесконечное небо над головой.
  • Оцените классические «Заезд на скорость», «Гран-при» и новые режимы: «Копы и грабители» и «Просто бомба».
  • Играйте в одиночку или с друзьями. Частота 60 кадров/с в одиночном режиме для лучшей визуализации!

Скриншоты

TEST

Post 06-Dec-2021 22:05

[Quote]

NFL 2021-2022 / Week 13 / 05.12.2021
San Francisco 49ers @ Seattle Seahawks
-

-
Вид спорта: Американский футбол
Дата/Год выпуска: 05.12.2021
Участники: San Francisco 49ers @ Seattle Seahawks
Язык комментариев: Английский (CBS)
Описание: Игра регулярного сезона. 13 неделя.- -Автор рипа/записи: ?
Качество: WEB-DL HD
Формат видео: MKV
Видео: AVC/H.264, 1280x720 (16:9), 30.00 fps, 3450 kbps
Аудио: AAC LC, 48000 Hz, stereo, 2 channels, 128 kbps
-

Продолжительность

02:18:58

Скриншоты

Результат

скрытый текст

23 : 30
-

TEST

Post 06-Dec-2021 22:05

[Quote]

Павел Лисициан и Жорж де Годзинский
Жанр: Vocal
Тип издания: WEB / Digital Release
Носитель: STREAM
Страна-производитель диска: Finland
Год издания диска: 1957
Издатель (лейбл): Rytmi
Номер по каталогу: RLP 8029
Аудиокодек: FLAC
Тип рипа: tracks
Битрейт аудио: lossless
Продолжительность: 29:17
Источник: собственный рип
Наличие сканов в содержимом раздачи: front cover
Треклист:
1. Восточный романс "В крови горит огонь желанья" (Глазунов)
2. Core 'ngrato (Cardillo)
3. Клубится волною кипучею Кур (Рубинштейн)
4. Полюбил я розу (арм. нар.)
5. Дивлюсь я на небо (укр. нар.)
6. К розе (Спендиаров)
7. Романс Демона "Я тот, которому внимала..." (Рубинштейн)
8. Ласточка (арм. нар.)
9. Я не сержусь (Шуман)
10. Мы сидели с тобой (Чайковский)
11. О нет, молю, не уходи (Рахманинов)
12. К возлюбленной (арм. нар.)
Исполнители:
Павел Лисициан, баритон
Жорж де Годзинский, фортепиано
Доп. информация: А. К. Молчанов. Жорж де Годзинский.
© А. К. Молчанов
Жорж (Георгий) де-Годзинский (1914-1994), композитор и дирижер польского происхождения, был наиболее видным представителем русской музыкальной традиции в Финляндии. Де-Годзинский родился в музыкально одаренной семье. Его родители встретились в Петербурге, где они учились у Зилоти. Его мать, Мария Оттмар-Нойшеллер была пианистка; его отец, Франтишек де-Годзинский, по образованию инженер, был удивительным импровизатором с великолепной музыкальной памятью, которую унаследовал Жорж. В юности, в Петербурге Франтишек был дружен со многими музыкантами, в числе которых были Падеревский, Глазунов и Рахманинов. Он даже играл в четыре руки с Рахманиновым!
Родители де-Годзинского вскоре развелись, и мальчик и его сестра Елизавета остались с отцом. У Франтишека де-Годзинского было несколько давнишних друзей в Финляндии, и когда семья эмигрировала, они остановились на 3,5 года (1921-1923 гг.) возле Иматры. Отец уезжал по делам в Хельсинки и Тампере, оставляя детей дома. Маленький Жорж вскоре подружился с финнами и научился их языку. Отец под псевдонимом «мсье Франсуа» организовал эстрадную группу (оркестр? - А. М.), и они отправились в Хельсинки.
Дома семья говорила по-русски, и де-Годзинский учился в русской школе. В 1930 г. он окончил русский лицей в Хельсинки. Первые занятия музыкой происходили частным образом. «У меня был частный наставник Николай ван-Гильс ван дер Пальс, племянник моей бабушки. Он учился в Петербургской консерватории. Он был пианист и дирижер, мой первый учитель в течение полутора лет. Он был дирижером Шведского Театра и занимался теорией музыки» (де-Годзинский, интервью, 1988).
Еще будучи гимназистом, де-Годзинский руководил балалаечным оркестром скаутов в более чем 20 человек. По окончании гимназии де-Годзинский поступил в Хельсинкскую Консерваторию, где в числе его учителей были хорошо известные финские композиторы Эркки Мелартен, Селим Пальмгрен и Лееви Мадетоя : «Я учился технике аккомпанемента и «французской легкости» у самого Селима Пальмгрена. Искусная техника пришла позже, когда я отправился в турне с Федором Шаляпиным» (там же, 1988).
Де-Годзинский начал профессиональную деятельность еще студентом консерватории, в 1930-1937 гг. В начале 1930-х гг. он был принят пианистом в Финскую Национальную Оперу, где Жорж Ге и Александр Сакселин работали хореографами. Вечерами он играл в Эстрадном оркестре, в котором было много русских, а также играл в четыре руки со своим отцом в ресторане «Оопперакеллари». Одаренный хорошим абсолютным слухом, де-Годзинский нашел себе еще заработок - он стал настройщиком. Его основным источником заработка в 1938 г., по его слловам, было кафе «Тарина» на Лённротинкату в Хельсинки, где он играл на баяне с русским ансамблем братьев Путилиных и игравшим на мандолине Гроссбергом.
«Дни были расписаны по часам. По утрам я играл, аккомпонируя урокам балета в Школе Балета Оперы. В течение для у меня были уроки в Консерватории, и еще я то и дело подменял Ассера Фагерстрёма и Роберта фон Эссена, которые оба исполняли на фортепияно танцевальную музыку. Иногда, когда была возможность, я играл с оркестром Даллап и Рамблез в турне, а также мог играть с «Мелоди бойз». Это были братья Александр и Борис Виттенберг, а также папа Виттенберг, бывший полковник царских времен, который был великолепный бас и актёр»(Франк, 1992, 49-50).
«В 30-х гг. де-Годзинский организовал свою мужскую танцевальную (так! - А. М.) группу под названием «Ливадия» исполнявшую различные шлягеры на инструментах в Хельсинкском балалаечном оркестре и аккомпонировал на фортепиано ансамблю исполнителей. По четвергам молодой музыкант играл в Русском клубе. Он также участвовал в любительских постановках русской оперы (там же, 41)». Его дебют в качестве концертного дирижера (концертмейстера? - А. М.) состоялся в 1933 г.
«Мне было 20 лет, я был самоучка, помню это как если бы это было вчера. Анатолий Любимов солировал в первой части концерта для фортепиано . Выборг был вторым моим домом. Каждый год Борис Сирпо, директор музыкальной школы приглашал меня в качестве аккомпаниатора. Кирилл Шалкевич и Жорж де-Годзинский были всё время единственными аккомпаниаторами; Сирпо никого больше не признавал. Я хорошо читал музыку. У меня нет зрительной памяти, но слуховая память великолепная: услышав что-то однажды, я запоминал это навсегда. У Шалкевича тоже была удивительная слуховая память» (Жорж де-Годзинский, интервью, 1988).
В начале 30-х гг. де-Годзинский начал писать финскую популярную музыку и танго, которые исполнялись известными музыкантами Арви Тиккала и Теему Грёнбергом. Множество его песен становились известными шлягерами, считаясь классикой по сей день: «Hymyillen» («С улыбкой»), «Sulle salaisuuden kertoa mä voisin» («Могу сказать тебе секрет» ), «Äänisen aallot» («Онежские волны»).
Встреча де-Годзинского с Федорром Шаляпиным, который приехал в Хельсинки в 1935 г., была для молодого композитора большим событием, как в профессиональнов, так и в личном плане. Он вспоминает эту встречу следующим образом.
«Как раз в тот момент, когда Шаляпин знакомился с помещением оперы, мы исполняли »Тоску» в помещении для репетиций, и я сидел за фортепиано. Шаляпин стоял и слушал. И вот настал день, когда Ряйккёнен, тогда возглавлявший оперу, позвонил мне и сказал, что Шаляпин хотел бы видеть меня. Его аккомпониатор, итальянец исчез. И вот теперь он хотел поговорить со мною, поскольку слышал, как я аккомпанировал.
Шаляпин ... позвал моего отца, который остолбенел, когда услышал, что сказал Шаляпин, но дал разрешение. Всегда неплохо попробовать, - подумал он. И вот вдруг меня пригласили встретиться в певцом. Я был через полчаса. Ноги дрожали» (Франк, 1992, 51-52).
Удивительно быстро молодой пианист разучил весь репертуар Шаляпина, от «Блохи» Мусоргского дл заключительной арии «Бориса Годунова». Роль аккомпониатора затруднялась не только тем, что де-Годзинскому был недостаточно знаком репертуар Шаляпина, но и тем, что должен был быстро сменить ключ (тональность? - А. М.). Де-Годзинский поясняет: «Когда Шаляпин заметил, что я могу быстро менять тональность, он пояснил: »Это именно такой человек, какой мне нужен. Иногда, даже не будучи вполне уверен, я начинал петь тоном ниже»» (там же).
Исполнители встретились 15 декабря 1935 г. в Париже, откуда они отправились в Японию. Только само путешествие заняло более пяти недель, и первый крнцерт состоялся в Токио 25 января в 6000-й аудитории. Турне продолжалось 8 месяцев приведя их в Сингапур, Пекин, Харбин и Мукден. Весной 1936 г. Шаляпин и де-Годзинский вернулись в Японию, где они записали 2 долгоиграющих пластинки. Их работа прервалась, когда Шаляпин заболел. Де-Годзинский тоже был нездоров, и им пришлось расстаться. Их планы совместной работы на будущее не осуществились, а весной 1938 г. Шаляпин умер.
Вернувшись в Финляндию, де-Годзинский отправляется в турне в качестве дерижера Финского радио, каковым и работал около 50 лет. Жорж де-Годзинский прославился по всей Скандинавии и за ее пределами как один из наиболее одаренных исполнителей популярной музыки. Де-Годзинский был особенно известен как аккомпаниатор и арранжировщик. Он выступал с женской группой «The Harmony Sisters» (сёстры Валтонен) в Финляндии, Скандинавии и довоенной Германии. После войны он присоединился к квартету «Kipparikvartetti», который гастролировал по всей Финляндии.
В конце 30-х гг. де-Годзинский начал писать музыку к финским кинофильмам, первым из которых был «Varastettu kuolema» («Украденная смерть», 1938). Его наиболее известный фильм - это «Miehen tie» («Путь человека»), основанный на новелле Ф. Е. Силланпяя.
В истории финской музыки Жорж де-Годзинский выступает как выдающийся (extraordinarily profilic) исполнитель и композитор. Он является автором 12 оперетт и мьюзиклов, 4 балетных сюит к сказкам Г.Х.Андерсена, около 50 симфонических и камерных произведений, музыки к 64 опереттам и мюзиклам, включая «Veronica») «Вероника»1946), «Häät prerialla» («Свадьба в прерии», 1949), «Kuisma ja Helena» («Куйсма и Хелена», 1971). Будучи космополитом, де-Годзинский испытал влияние нескольких музыкальных традиций. В своюм интервью он утверждал, что русская музыка была очень близка ему, а композиторами, особенно повлиявшими на него были Чайковский, Рахманинов и Шостакович (Жорж де-Годзинский, интервью, 1988).

TEST

Post 06-Dec-2021 22:05

[Quote]

The World Series of Chill Out, Vol. 1-4
Жанр: Lounge, Chill Out, Downtempo, Trip Hop, New Age, World
Носитель: WEB
Год издания: 2021
Издатель (лейбл): Global Player Music
Аудиокодек: FLAC (*.flac)
Тип рипа: tracks
Продолжительность: 07:10:17
Источник: Deezer
Наличие сканов в содержимом раздачи: нет

2021 - The World Series of Chill Out, Vol. 1

Издатель: Global Player Music
Носитель: WEB
Продолжительность: 01:36:38
Источник: deezer
Треклист :
01. Tom Tom Club – Love To Love You Baby (Vavinchi Remix) (06:34)
02. David K. – This City (Acoustic) (02:55)
03. Simone Gatto, Merialma Colucci – Sarvesham Svastir Bhavatu Mantra (03:23)
04. Thomas Lemmer – Different World (03:43)
05. Lemongrass – Landing (04:06)
06. Twins In Mind – Fallacy Of Faith (Cammiloo Remix) (08:20)
07. Smooth Deluxe, Nizam Kharda – One Love (02:14)
08. Corrado Saija – Alba (04:31)
09. Parafernalia, Ace Vincent – The Thrillseeker (09:30)
10. Rico Casazza – Dawn (03:02)
11. Fushe – Enigmore (03:48)
12. Ignat Shamko – Life Line (08:07)
13. Paro Dion Feat. Sasha – Sing The Sound (06:05)
14. Burya, Vestnik – Good Morning (06:32)
15. Skyio – Magnitude (04:42)
16. Vechigen – Night In The Desert (06:23)
17. Soft Knees – Lost Tapes (03:58)
18. Andrew Thomas – A Dream Of A Spider (04:25)
19. Spoq – Sockets (02:54)
20. Francois Maugame – Anathema (01:26)

Лог проверки качества

-----------------------
DON'T MODIFY THIS FILE
-----------------------
PERFORMER: auCDtect Task Manager, ver. 1.6.0 RC1 build 1.6.0.1Copyright (c) 2008-2010 y-soft. All rights reservedhttp://y-soft.org
ANALYZER: auCDtect: CD records authenticity detector, version 0.8.2Copyright (c) 2004 Oleg Berngardt. All rights reserved.Copyright (c) 2004 Alexander Djourik. All rights reserved.
FILE: 20 - Francois Maugame - Anathema.flac Size: 7045387 Hash: C6E307C09E930A7336C0D64411F628E7 Accuracy: -m0 Conclusion: CDDA 100% Signature: 5C809C8F761DBDA37FCAC460D3DBAB8EA768A167FILE: 19 - Spoq - Sockets.flac Size: 18608139 Hash: 314398880F1EF09C3B4234BA05D768F0 Accuracy: -m0 Conclusion: CDDA 99% Signature: A215DAC833C49DDC24FCA0BBD187501BD3AB9679FILE: 18 - Andrew Thomas - A Dream of a Spider.flac Size: 27796906 Hash: 0F45318F9549487D72D30600FB0CE8B8 Accuracy: -m0 Conclusion: ??? Signature: E93E25FE92B3D01E4569EA3049F60BE3DAE2BEF7FILE: 17 - Soft Knees - Lost Tapes.flac Size: 26474061 Hash: 5CEA243DA4F8CD0412410A20D2FED1BA Accuracy: -m0 Conclusion: CDDA 100% Signature: 2564E0F9E95ABC7867FD2AE79CFBB018CFB4AC74FILE: 16 - Vechigen - Night in the Desert.flac Size: 30804879 Hash: 03E2606B46B55B95932DD18FFD750E68 Accuracy: -m0 Conclusion: CDDA 100% Signature: 9E7932DA6AB80E20938D584D772AF5B77050CBDAFILE: 15 - Skyio - Magnitude.flac Size: 29565119 Hash: 4E852BF29524BE717A5C1E9515EEC1FE Accuracy: -m0 Conclusion: CDDA 100% Signature: D8AB522F0248F40EE17CC98EAEF2A544CB2258F0FILE: 14 - Burya - Good Morning.flac Size: 37540766 Hash: E5D97A8DC6B11451AD6B11BEB6D4DC78 Accuracy: -m0 Conclusion: CDDA 100% Signature: 2C7EF5ACBB896793B713CF4361D2BA9BF9BFA826FILE: 13 - Paro Dion - Sing the Sound.flac Size: 33295434 Hash: 53367BE2CD34AD09F0DBB5E25197BA06 Accuracy: -m0 Conclusion: CDDA 99% Signature: 0461EB7C892FB476B79FBC3A45E2F60D6C3711D1FILE: 12 - Ignat Shamko - Life Line.flac Size: 48912985 Hash: 2F271CAD38A9F9DAB336E826794647A7 Accuracy: -m0 Conclusion: CDDA 100% Signature: FC5945E0CFAF3908B50FB90381CCA9C7F4C6C5FBFILE: 11 - Fushe - Enigmore.flac Size: 27361188 Hash: 64F09B1A56BB4762C704D2647798F1F5 Accuracy: -m0 Conclusion: CDDA 100% Signature: D75F0AD7C264D022EBDE48EE334505AE05F63E13FILE: 10 - Rico Casazza - Dawn.flac Size: 12947468 Hash: 14AF6CF2E7A3A65C871C8B2CAE21FE3C Accuracy: -m0 Conclusion: CDDA 43% Signature: C974B8F217E36371149DB9A80F682C177FBB1239FILE: 09 - Parafernalia - The Thrillseeker.flac Size: 46848166 Hash: D9CE86E2DBE3C95EE7188BB975D3900A Accuracy: -m0 Conclusion: CDDA 100% Signature: EC46CEF3B62D1BA28E68AFCBF18B1976EC048D42FILE: 08 - Corrado Saija - Alba.flac Size: 24510922 Hash: 004DA38B85671513D87325CD8E8DF9F6 Accuracy: -m0 Conclusion: CDDA 100% Signature: D9300EA92443B71C3B0B8B200415E7BA51491EC5FILE: 07 - Smooth Deluxe - One Love.flac Size: 16428469 Hash: A810EE0020443D516DF16FA15B42C51D Accuracy: -m0 Conclusion: CDDA 100% Signature: 14FD57828FE14347C8A6EE3424F7684F88D4A9CDFILE: 06 - Twins In Mind - Fallacy of Faith (Cammiloo Remix).flac Size: 44986024 Hash: 595F3DF6E8EEAE09630CEE975745B9E6 Accuracy: -m0 Conclusion: MPEG 95% Signature: ACE49656427E24A44504687661C32DD0751905D1FILE: 05 - Lemongrass - Landing.flac Size: 24367364 Hash: 9B410544DFDA97EF1F5C0DD9FA044A8A Accuracy: -m0 Conclusion: CDDA 100% Signature: 4307838E028EBE942ED4CB533DBE9AFE62667C62FILE: 04 - Thomas Lemmer - Different World.flac Size: 18922181 Hash: 111A7786832AA9157E3FE7CE0799791E Accuracy: -m0 Conclusion: CDDA 100% Signature: 08E3E893E81FC5B4B167B6444A3CB3F9028721D9FILE: 03 - Simone Gatto - Sarvesham svastir bhavatu mantra.flac Size: 13556414 Hash: AAC97E91446A44AA473D86DE8CD85F7A Accuracy: -m0 Conclusion: CDDA 43% Signature: FA8958A7BD937BE0492BFF3E6CFC1834C8D11240FILE: 02 - David K. - This City (Acoustic).flac Size: 17716244 Hash: A7A804209760DD52DCBBA492A10FEC17 Accuracy: -m0 Conclusion: CDDA 100% Signature: 6A3C858D1D0B392709E12E364F20914A7E570841FILE: 01 - Tom Tom Club - Love to Love You Baby (Vavinchi Remix).flac Size: 46627872 Hash: 07B9E787FFBAEA6AD29D38455A873519 Accuracy: -m0 Conclusion: CDDA 100% Signature: BFC65578D78E5C5A17426E3E9682C085F96CBA89

Лог DRM

foobar2000 1.5.5 / Замер динамического диапазона (DR) 1.1.1Дата отчёта:  2021-12-06 20:04:09
--------------------------------------------------------------------------------Анализ: Andrew Thomas / The World Series of Chill Out, Vol. 1 (1) Burya, Vestnik / The World Series of Chill Out, Vol. 1 (2) Corrado Saija / The World Series of Chill Out, Vol. 1 (3) David K. / The World Series of Chill Out, Vol. 1 (4) Francois Maugame / The World Series of Chill Out, Vol. 1 (5) Fushe / The World Series of Chill Out, Vol. 1 (6) Ignat Shamko / The World Series of Chill Out, Vol. 1 (7) Lemongrass / The World Series of Chill Out, Vol. 1 (8) Parafernalia, Ace Vincent / The World Series of Chill Out, Vol. 1 (9) Paro Dion, Sasha / The World Series of Chill Out, Vol. 1 (10) Rico Casazza / The World Series of Chill Out, Vol. 1 (11) Simone Gatto, Merialma Colucci / The World Series of Chill Out, Vol. 1 (12) Skyio / The World Series of Chill Out, Vol. 1 (13) Smooth Deluxe, Nizam Kharda / The World Series of Chill Out, Vol. 1 (14) Soft Knees / The World Series of Chill Out, Vol. 1 (15) Spoq / The World Series of Chill Out, Vol. 1 (16) Thomas Lemmer / The World Series of Chill Out, Vol. 1 (17) Tom Tom Club / The World Series of Chill Out, Vol. 1 (18) Twins In Mind / The World Series of Chill Out, Vol. 1 (19) Vechigen / The World Series of Chill Out, Vol. 1 (20)--------------------------------------------------------------------------------
DR Пики RMS Продолжительность трека--------------------------------------------------------------------------------DR5 -0.53 дБ -7.89 дБ 4:25 18-A Dream of a SpiderDR9 -0.02 дБ -12.07 дБ 6:32 14-Good MorningDR11 0.00 дБ -15.82 дБ 4:31 08-AlbaDR7 -0.45 дБ -9.53 дБ 2:55 02-This City (Acoustic)DR6 0.00 дБ -7.08 дБ 1:26 20-AnathemaDR8 -0.01 дБ -8.64 дБ 3:48 11-EnigmoreDR5 0.00 дБ -7.33 дБ 8:07 12-Life LineDR6 -0.14 дБ -8.47 дБ 4:06 05-LandingDR11 -0.01 дБ -14.93 дБ 9:30 09-The ThrillseekerDR6 -0.02 дБ -9.46 дБ 6:05 13-Sing the SoundDR9 0.00 дБ -12.14 дБ 3:02 10-DawnDR9 -0.50 дБ -12.31 дБ 3:23 03-Sarvesham svastir bhavatu mantraDR9 0.00 дБ -11.95 дБ 4:41 15-MagnitudeDR3 -0.01 дБ -5.12 дБ 2:14 07-One LoveDR8 -0.04 дБ -9.45 дБ 3:58 17-Lost TapesDR6 0.00 дБ -8.25 дБ 2:54 19-SocketsDR8 -0.28 дБ -10.84 дБ 3:43 04-Different WorldDR7 -0.28 дБ -8.97 дБ 6:34 01-Love to Love You Baby (Vavinchi Remix)DR8 0.00 дБ -10.16 дБ 8:20 06-Fallacy of Faith (Cammiloo Remix)DR11 -0.22 дБ -13.36 дБ 6:23 16-Night in the Desert--------------------------------------------------------------------------------
Количество треков: 20Реальные значения DR: DR8
Частота: 44100 ГцКаналов: 2Разрядность: 16Битрейт: 642 кбит/сКодек: FLAC================================================================================

2021 - The World Series of Chill Out, Vol. 2

Издатель: Global Player Music
Носитель: WEB
Продолжительность: 01:50:54
Источник: deezer
Треклист :
01 Nale - Heaven
02 Vechigen - The Visitors
03 Aiemo & Miki Flores - Left With Silence (Vocal mix)
04 Tim Angrave - Refined Interjection
05 Aerium & Me3dian - Midsimmerhjoen
06 Stuce The Sketch - Fikira
07 Lemongrass - Wormhole
08 Thomas Lemmer & Naemi Joy - White Room (Intimate Piano Version)
09 Evadez - Chapters
10 Coral Chiller - Chillout Codes
11 Soft Knees - Cirrus
12 Aime Sol - Daylight
13 Ravenherz - The Implicit Structure
14 Rico Casazza - Kyoto Is Not There
15 The Sad Lovers - The Drifter
16 Alexey Light - The Stars Around Us
17 Anton Kubikov - Ambianopolis
18 Watts & Ohms - Stone Tears
19 Leandro Fresco - La Edad De Oro
20 Burger & Voigt - Frieden
21 Smooth Deluxe & Nizam Kharda - Indian Cuisine
22 Simone Gatto - Default Mode Network
23 T2'n - Appero Mix

Лог проверки качества

-----------------------
DON'T MODIFY THIS FILE
-----------------------
PERFORMER: auCDtect Task Manager, ver. 1.6.0 RC1 build 1.6.0.1Copyright (c) 2008-2010 y-soft. All rights reservedhttp://y-soft.org
ANALYZER: auCDtect: CD records authenticity detector, version 0.8.2Copyright (c) 2004 Oleg Berngardt. All rights reserved.Copyright (c) 2004 Alexander Djourik. All rights reserved.
FILE: 23 - T2'n - Appero Mix.flac Size: 13706785 Hash: FE9034D257CDBF90B5118050C4F5DEBF Accuracy: -m0 Conclusion: CDDA 100% Signature: 32DD4DA13E8F6239335C514EA1DB6800F587307FFILE: 22 - Simone Gatto - Default Mode Network.flac Size: 29216114 Hash: 58F0585D7579C8C0445EB573E35CF020 Accuracy: -m0 Conclusion: CDDA 100% Signature: 45A2BA67A0242EB47DDC8E8A30A58EA6C7138B89FILE: 21 - Smooth Deluxe - Indian Cuisine.flac Size: 22236891 Hash: C7C1CF5E4CCE95E95B62FD50CCACD262 Accuracy: -m0 Conclusion: CDDA 100% Signature: 4A7C6923B92A588C93FD5D029074185643AA035CFILE: 20 - Burger - Frieden.flac Size: 38435035 Hash: 8E1FB64D7DF299622DC38BD3A4B41B38 Accuracy: -m0 Conclusion: ??? Signature: DD6E094A4505AD34BD57C93FA1742E3A1C321E5CFILE: 19 - Leandro Fresco - La Edad de Oro.flac Size: 33555668 Hash: A81C4C6B557F8678E9C54E5E51AB674C Accuracy: -m0 Conclusion: CDDA 100% Signature: EB38012A72E5B9B34D9B3013B56A2D8EE90936B5FILE: 18 - Watts & Ohms - Stone Tears.flac Size: 18705618 Hash: FE29E0A473AA955F340F19FAF8B5B865 Accuracy: -m0 Conclusion: CDDA 100% Signature: 45E55E4E73E4EF1CB4608A3FBCD1A186DDB97833FILE: 17 - Anton Kubikov - Ambianopolis.flac Size: 24302895 Hash: C438C656E6D609B7FE67DB6B211F88A2 Accuracy: -m0 Conclusion: CDDA 100% Signature: A65E5A228B19BF7DC0366B1B8EE10483D451CFDAFILE: 16 - Alexey Light - The Stars Around Us.flac Size: 19816769 Hash: 97E185F5A4BFD6F5710713FDFB230B7A Accuracy: -m0 Conclusion: MPEG 89% Signature: 1D88578C1C895550BB2619C47DF2CE141BC5E35AFILE: 15 - The Sad Lovers - The Drifter.flac Size: 20483167 Hash: B36A207BA7B1A01D442BDA98024C052D Accuracy: -m0 Conclusion: CDDA 62% Signature: D1AC5CA12CCEB891F0B342DCAFA53E7E78B754B1FILE: 14 - Rico Casazza - Kyoto Is Not There.flac Size: 24557432 Hash: 55CEB22738642E70D4038419A4026EAE Accuracy: -m0 Conclusion: CDDA 99% Signature: 6C858D427D3BD3ED8592AC456AC4AE01E7CA9B77FILE: 13 - Ravenherz - The Implicit Structure.flac Size: 17745412 Hash: A36991B10E1C9E698AD2B7ABE184EDDE Accuracy: -m0 Conclusion: MPEG 89% Signature: 7FE9CC00669F775BD0C7C705E866ED96B31D69FAFILE: 12 - Aimée Sol - Daylight.flac Size: 22712796 Hash: 372D50ED27645A59521C9D9CD017E9D8 Accuracy: -m0 Conclusion: CDDA 100% Signature: 0988D0897728840806180C6CD316B9870302E3F6FILE: 11 - Soft Knees - Cirrus.flac Size: 42670856 Hash: 9598E0227343EB707FEA4B244449E8EE Accuracy: -m0 Conclusion: CDDA 100% Signature: 43BF5914AB081C076F7742AB24DEA08D69E1D802FILE: 10 - Coral Chiller - Chillout Codes.flac Size: 37314712 Hash: 39CFA94447FEC71E1A88996E4079E10A Accuracy: -m0 Conclusion: CDDA 43% Signature: 6DC99FFE704B92AA5084F54020DCE4E3912FA47CFILE: 09 - Evadez - Chapters.flac Size: 24003062 Hash: E57079B9DBBC9993C1E7AB6F48FAAFE0 Accuracy: -m0 Conclusion: MPEG 95% Signature: 0BF5CC9879BFD223C9CC6014B35A5A6EDD52A7EBFILE: 08 - Thomas Lemmer - White Room (Intimate Piano Version).flac Size: 23169790 Hash: D21173A033BAFB11E6B8C2C4D495D1E6 Accuracy: -m0 Conclusion: CDDA 99% Signature: B6BF6263A68DB42D80E36DC5F81931D27E5C17B0FILE: 07 - Lemongrass - Wormhole.flac Size: 9312262 Hash: E80D620C7A4DE025CB68E65200C38E81 Accuracy: -m0 Conclusion: CDDA 100% Signature: 9D0076686284797E26464FDAB5836073F6787699FILE: 06 - Stuce The Sketch - Fikira.flac Size: 24190610 Hash: D6644CE8A6F6CCF5B3AF4B3A144E457D Accuracy: -m0 Conclusion: CDDA 100% Signature: 41EB1CF1FBB4775678D4CF2A2FA6A5A317145F7AFILE: 05 - Aerium - Midsimmerhjoen.flac Size: 37170439 Hash: 0E288A752E235B732BA8F7C78E44BA8C Accuracy: -m0 Conclusion: CDDA 100% Signature: 74614048A0D86291B3E04E2CEC421F715ED2DBB0FILE: 04 - Tim Angrave - Refined Interjection.flac Size: 28705573 Hash: 8FA93C9D6E13DD64FC30FCFF11D01D3F Accuracy: -m0 Conclusion: CDDA 100% Signature: 270DAD837695FAD9B6758B3BF74EC5AC87B80156FILE: 03 - Aiemo - Left With Silence (Vocal Mix).flac Size: 18692503 Hash: 7300E93392D8D4755961B417E4953A3F Accuracy: -m0 Conclusion: CDDA 99% Signature: E3080A7E741C3B806ABED4470505040BDC214EA7FILE: 02 - Vechigen - The Visitors.flac Size: 41899809 Hash: 67749CB42FCBCF9311A0D76BAAA57757 Accuracy: -m0 Conclusion: MPEG 95% Signature: 4BC8EE598793209650D6A8ED7F00ACFEB3517ED0FILE: 01 - Nale - Heaven.flac Size: 23949804 Hash: 82994D551653E4687EB59240E8A4E36E Accuracy: -m0 Conclusion: CDDA 100% Signature: BF70089083654283F0F8AE9564B56D0FCB43F692

Лог DRM

foobar2000 1.5.5 / Замер динамического диапазона (DR) 1.1.1Дата отчёта:  2021-12-06 20:07:30
--------------------------------------------------------------------------------Анализ: Aerium, Me3dian / The World Series of Chill Out, Vol. 2 (1) Aiemo, Miki Flores / The World Series of Chill Out, Vol. 2 (2) Aimée Sol / The World Series of Chill Out, Vol. 2 (3) Alexey Light / The World Series of Chill Out, Vol. 2 (4) Anton Kubikov / The World Series of Chill Out, Vol. 2 (5) Burger, Voigt / The World Series of Chill Out, Vol. 2 (6) Coral Chiller / The World Series of Chill Out, Vol. 2 (7) Evadez / The World Series of Chill Out, Vol. 2 (8) Leandro Fresco / The World Series of Chill Out, Vol. 2 (9) Lemongrass / The World Series of Chill Out, Vol. 2 (10) Nale / The World Series of Chill Out, Vol. 2 (11) Ravenherz / The World Series of Chill Out, Vol. 2 (12) Rico Casazza / The World Series of Chill Out, Vol. 2 (13) Simone Gatto / The World Series of Chill Out, Vol. 2 (14) Smooth Deluxe, Nizam Kharda / The World Series of Chill Out, Vol. 2 (15) Soft Knees / The World Series of Chill Out, Vol. 2 (16) Stuce The Sketch / The World Series of Chill Out, Vol. 2 (17) T2'n / The World Series of Chill Out, Vol. 2 (18) The Sad Lovers / The World Series of Chill Out, Vol. 2 (19) Thomas Lemmer, Naemi Joy / The World Series of Chill Out, Vol. 2 (20) Tim Angrave / The World Series of Chill Out, Vol. 2 (21) Vechigen / The World Series of Chill Out, Vol. 2 (22) Watts & Ohms / The World Series of Chill Out, Vol. 2 (23)--------------------------------------------------------------------------------
DR Пики RMS Продолжительность трека--------------------------------------------------------------------------------DR5 0.00 дБ -6.37 дБ 6:08 05-MidsimmerhjoenDR7 0.00 дБ -9.41 дБ 3:11 03-Left With Silence (Vocal Mix)DR3 -0.01 дБ -4.78 дБ 4:10 12-DaylightDR9 -0.02 дБ -11.55 дБ 4:30 16-The Stars Around UsDR6 -0.42 дБ -9.76 дБ 5:14 17-AmbianopolisDR6 -0.55 дБ -8.10 дБ 6:24 20-FriedenDR4 -0.20 дБ -7.51 дБ 5:36 10-Chillout CodesDR11 -0.20 дБ -14.14 дБ 4:42 09-ChaptersDR10 -0.72 дБ -12.10 дБ 5:59 19-La Edad de OroDR9 -0.30 дБ -13.14 дБ 1:54 07-WormholeDR7 0.00 дБ -10.03 дБ 3:52 01-HeavenDR12 -1.22 дБ -16.42 дБ 4:08 13-The Implicit StructureDR9 0.00 дБ -11.85 дБ 5:02 14-Kyoto Is Not ThereDR8 -0.50 дБ -11.49 дБ 7:26 22-Default Mode NetworkDR7 -0.04 дБ -7.78 дБ 3:09 21-Indian CuisineDR10 0.00 дБ -12.77 дБ 7:50 11-CirrusDR6 -0.01 дБ -8.92 дБ 3:40 06-FikiraDR9 -0.20 дБ -12.31 дБ 2:23 23-Appero MixDR11 0.00 дБ -12.59 дБ 4:03 15-The DrifterDR8 -0.28 дБ -9.95 дБ 3:57 08-White Room (Intimate Piano Version)DR8 0.00 дБ -11.72 дБ 6:41 04-Refined InterjectionDR5 0.00 дБ -6.36 дБ 6:05 02-The VisitorsDR12 -0.02 дБ -15.31 дБ 4:51 18-Stone Tears--------------------------------------------------------------------------------
Количество треков: 23Реальные значения DR: DR8
Частота: 44100 ГцКаналов: 2Разрядность: 16Битрейт: 512 кбит/сКодек: FLAC================================================================================

2021 - The World Series of Chill Out, Vol. 3

Издатель: Global Player Music
Носитель: WEB
Продолжительность: 01:58:40
Источник: deezer
Треклист :
01. Man In A Room; Sara Azrie - Brave This Moment (05:35)
02. Twins In Mind - Floating Clouds (03:31)
03. T2'n - Le Desert de Michat (03:57)
04. Stuce The Sketch - Seventh Heaven (Acoustic) (05:06)
05. Aiemo; Holly Prothman - Your Dreams (Vocal Mix) (04:09)
06. Corrado Saija - Il cielo delle eolie (05:07)
07. Watts & Ohms - Watt Do I Want (05:33)
08. Thomas Lemmer - Endless Horizon (04:17)
09. Evadez - Exist (04:45)
10. Coral Chiller - Yamiyihka (05:45)
11. Aerium; Me3dian - Bioluminescence (06:33)
12. Parafernalia - Moments of Freedom (08:43)
13. Art Demoir - Element (04:38)
14. Nale - Nevermind (04:51)
15. Father - Time for Goodbye (06:40)
16. Rico Casazza - Ryuichi (Dub Mix) (05:00)
17. Davide Leonardo - Hear the Sunset (04:56)
18. Kenneth James Gibson - To See You Drift (05:40)
19. Triola - L'Atalante (05:43)
20. Andrew Thomas - Clouds Across Face (04:15)
21. Spoq - Spark Plot (02:39)
22. Alexis Salazar - Dan (02:59)
23. Skyio - Exoplanet (04:45)
24. Smooth Deluxe; Nizam Kharda - Dried Hot Peppers (03:22)

Лог проверки качества

-----------------------
DON'T MODIFY THIS FILE
-----------------------
PERFORMER: auCDtect Task Manager, ver. 1.6.0 RC1 build 1.6.0.1Copyright (c) 2008-2010 y-soft. All rights reservedhttp://y-soft.org
ANALYZER: auCDtect: CD records authenticity detector, version 0.8.2Copyright (c) 2004 Oleg Berngardt. All rights reserved.Copyright (c) 2004 Alexander Djourik. All rights reserved.
FILE: 24 - Smooth Deluxe - Dried Hot Peppers.flac Size: 25723461 Hash: 5B9813ECAC28CCEDCCC483FF02DDB2A0 Accuracy: -m0 Conclusion: CDDA 100% Signature: 66439BFDFE7F07DF4036739D54EBF21E88B5831CFILE: 23 - Skyio - Exoplanet.flac Size: 31404868 Hash: 743F3CAE45CB78B285C95721DCCE7674 Accuracy: -m0 Conclusion: CDDA 100% Signature: F921CA20A1B6D2C7EB3D89E02347D431FAA53B4AFILE: 22 - Alexis Salazar - Dan.flac Size: 17493379 Hash: 4456AA46C514473FEC3F5900CC0A64EE Accuracy: -m0 Conclusion: CDDA 100% Signature: 42B349E982437F551FD517888879F5D5D8D8BCF5FILE: 21 - Spoq - Spark Plot.flac Size: 16892859 Hash: 8148E922FAAC3735E0312B1EF61CF418 Accuracy: -m0 Conclusion: CDDA 100% Signature: EF8E9D4CFC62D5B10CB5D062CD88FCFA11EBCBD7FILE: 20 - Andrew Thomas - Clouds Across Face.flac Size: 24353091 Hash: 95E21A6D6AB6D1A6130B44BA97363181 Accuracy: -m0 Conclusion: CDDA 100% Signature: A74DD330A1F4D471D46D154AEAE1DEB1C51F3DF1FILE: 19 - Triola - L'Atalante.flac Size: 26556278 Hash: AD56129CCC562E3E19C343CBD0E41AD6 Accuracy: -m0 Conclusion: MPEG 89% Signature: F4BBC05E30C6ADFF20A98CFBACE9EA1DBE5902AAFILE: 18 - Kenneth James Gibson - To See You Drift.flac Size: 27351095 Hash: 73CFD3FA0E3B1829A2FC731A0545E3B1 Accuracy: -m0 Conclusion: CDDA 100% Signature: 4B4B3CA7CA0A87D9BCE638C0BCDCE14CDE250ABDFILE: 17 - Davide Leonardo - Hear the Sunset.flac Size: 30038641 Hash: 4C2996981438ADADED083B8A979F942E Accuracy: -m0 Conclusion: CDDA 100% Signature: 744831F7751E8F984F0F1EEA9F9918DE3E114026FILE: 16 - Rico Casazza - Ryuichi (Dub Mix).flac Size: 28021781 Hash: 851DF11D608CE55925BD66EC817E5D27 Accuracy: -m0 Conclusion: CDDA 100% Signature: 1EF72751056A3FE841BE419637E25F9084FA6A4EFILE: 15 - Father - Time for Goodbye.flac Size: 45357038 Hash: 5DD4F6B08C6156FE4E71B6619BBBB775 Accuracy: -m0 Conclusion: CDDA 100% Signature: 5F8294094EA30D0A9720734D94CC08421F7D4A29FILE: 14 - Nale - Nevermind.flac Size: 28992165 Hash: 1A227417134219841D25C13E907C7173 Accuracy: -m0 Conclusion: CDDA 100% Signature: 56EB7C7107A6D3A95B6CE61FAED24C5230FB4027FILE: 13 - Art Demoir - Element.flac Size: 32498471 Hash: 5C67BB8CB7890ACF7327801F5B7F1DBF Accuracy: -m0 Conclusion: CDDA 99% Signature: 6AA7D2E5D867504520E05BFB2FEF93FC40300B94FILE: 12 - Parafernalia - Moments of Freedom.flac Size: 56516746 Hash: A706AC63264F072AEFF1314D9D82508E Accuracy: -m0 Conclusion: CDDA 99% Signature: 424F6A9FD42EF42A887B9F16007CCC82D2AB29DDFILE: 11 - Aerium - Bioluminescence.flac Size: 30167658 Hash: E7AA4E8F60913496C57B60FA41F263FF Accuracy: -m0 Conclusion: MPEG 90% Signature: 2239CF3BD73DA15723064D02255C025803A2EEECFILE: 10 - Coral Chiller - Yamiyihka.flac Size: 39726013 Hash: 0E4351FB594DE4C7E1F348E7C1FAF844 Accuracy: -m0 Conclusion: CDDA 99% Signature: 7F0AA9F34144932EDE3E00B3FEF854FFECE3AC0DFILE: 09 - Evadez - Exist.flac Size: 25120279 Hash: BAB729A3C80EF06B507C74202FE8D400 Accuracy: -m0 Conclusion: MPEG 95% Signature: 7FC4CA71FDE65FBC6DBD295F8CEA7BE904C4AAA8FILE: 08 - Thomas Lemmer - Endless Horizon.flac Size: 23036086 Hash: C85A631B7975509E3B9D8BBF9030B311 Accuracy: -m0 Conclusion: CDDA 99% Signature: C90B15B49A272BAE7AD7AC0A721F8CB7AE581D48FILE: 07 - Watts & Ohms - Watt Do I Want.flac Size: 28135890 Hash: FB85580B428611B880CC442AAB15C286 Accuracy: -m0 Conclusion: CDDA 100% Signature: 29694F2F7FD3D59FFB0A03F7D5B8C9985BD9DF15FILE: 06 - Corrado Saija - Il cielo delle eolie.flac Size: 32393831 Hash: D973F1A58687EF3AA663E104F76E11EC Accuracy: -m0 Conclusion: MPEG 95% Signature: 5BB71AE44242FFC63AF8D53BA1FAC4891680563EFILE: 05 - Aiemo - Your Dreams (Vocal Mix).flac Size: 27872288 Hash: B8E151347F17FF1A40E4D9D553150860 Accuracy: -m0 Conclusion: CDDA 100% Signature: BAB8026BB24DD06D04888C94B9AAE0FB81AC248FFILE: 04 - Stuce The Sketch - Seventh Heaven (Acoustic).flac Size: 28925224 Hash: B61AE4977EBE8FDD45F8DAAB9E983248 Accuracy: -m0 Conclusion: MPEG 95% Signature: 4070FA6D436F306BB3CD3414360B22E51DBE3587FILE: 03 - T2'n - Le Desert de Michat.flac Size: 19579609 Hash: 95556CB6BAED5D159BC70FF4B001ED4E Accuracy: -m0 Conclusion: CDDA 100% Signature: AA7386342582BDE640D8331AAE10E083126CE801FILE: 02 - Twins In Mind - Floating Clouds.flac Size: 19853032 Hash: 9414F1E00E79B86F6585E01DB107AA5D Accuracy: -m0 Conclusion: MPEG 95% Signature: 4BB3420C133ECCEC22C64F68167DCD80B243D04BFILE: 01 - Man In A Room - Brave This Moment.flac Size: 36738647 Hash: 0AF67BC57B209E2F4D9602699322D489 Accuracy: -m0 Conclusion: CDDA 100% Signature: FF23C969CF556C1BB5BD0AE179E8A56867146437

Лог DRM

foobar2000 1.5.5 / Замер динамического диапазона (DR) 1.1.1Дата отчёта:  2021-12-06 20:11:57
--------------------------------------------------------------------------------Анализ: Aerium, Me3dian / The World Series of Chill Out, Vol. 3 (1) Aiemo, Holly Prothman / The World Series of Chill Out, Vol. 3 (2) Alexis Salazar / The World Series of Chill Out, Vol. 3 (3) Andrew Thomas / The World Series of Chill Out, Vol. 3 (4) Art Demoir / The World Series of Chill Out, Vol. 3 (5) Coral Chiller / The World Series of Chill Out, Vol. 3 (6) Corrado Saija / The World Series of Chill Out, Vol. 3 (7) Davide Leonardo / The World Series of Chill Out, Vol. 3 (8) Evadez / The World Series of Chill Out, Vol. 3 (9) Father / The World Series of Chill Out, Vol. 3 (10) Kenneth James Gibson / The World Series of Chill Out, Vol. 3 (11) Man In A Room, Sara Azrie / The World Series of Chill Out, Vol. 3 (12) Nale / The World Series of Chill Out, Vol. 3 (13) Parafernalia / The World Series of Chill Out, Vol. 3 (14) Rico Casazza / The World Series of Chill Out, Vol. 3 (15) Skyio / The World Series of Chill Out, Vol. 3 (16) Smooth Deluxe, Nizam Kharda / The World Series of Chill Out, Vol. 3 (17) Spoq / The World Series of Chill Out, Vol. 3 (18) Stuce The Sketch / The World Series of Chill Out, Vol. 3 (19) T2'n / The World Series of Chill Out, Vol. 3 (20) Thomas Lemmer / The World Series of Chill Out, Vol. 3 (21) Triola / The World Series of Chill Out, Vol. 3 (22) Twins In Mind / The World Series of Chill Out, Vol. 3 (23) Watts & Ohms / The World Series of Chill Out, Vol. 3 (24)--------------------------------------------------------------------------------
DR Пики RMS Продолжительность трека--------------------------------------------------------------------------------DR10 0.00 дБ -12.96 дБ 6:34 11-BioluminescenceDR5 0.00 дБ -5.57 дБ 4:09 05-Your Dreams (Vocal Mix)DR8 0.00 дБ -9.01 дБ 2:59 22-DanDR7 -0.30 дБ -12.08 дБ 4:15 20-Clouds Across FaceDR5 -0.20 дБ -8.13 дБ 4:39 13-ElementDR6 -0.20 дБ -8.65 дБ 5:46 10-YamiyihkaDR8 0.00 дБ -11.13 дБ 5:08 06-Il cielo delle eolieDR10 0.00 дБ -12.45 дБ 4:56 17-Hear the SunsetDR13 -0.20 дБ -16.93 дБ 4:46 09-ExistDR7 0.00 дБ -8.44 дБ 6:40 15-Time for GoodbyeDR9 -0.28 дБ -13.54 дБ 5:41 18-To See You DriftDR5 -0.10 дБ -6.74 дБ 5:35 01-Brave This MomentDR8 0.00 дБ -10.77 дБ 4:52 14-NevermindDR8 -0.01 дБ -10.54 дБ 8:43 12-Moments of FreedomDR7 0.00 дБ -9.20 дБ 5:01 16-Ryuichi (Dub Mix)DR10 0.00 дБ -12.31 дБ 4:46 23-ExoplanetDR8 0.00 дБ -9.49 дБ 3:22 24-Dried Hot PeppersDR5 0.00 дБ -7.68 дБ 2:39 21-Spark PlotDR9 -0.14 дБ -11.89 дБ 5:06 04-Seventh Heaven (Acoustic)DR13 -0.10 дБ -15.58 дБ 3:58 03-Le Desert de MichatDR6 -0.28 дБ -7.73 дБ 4:18 08-Endless HorizonDR10 -0.41 дБ -12.93 дБ 5:44 19-L'AtalanteDR9 0.00 дБ -11.24 дБ 3:31 02-Floating CloudsDR10 -0.02 дБ -12.94 дБ 5:34 07-Watt Do I Want--------------------------------------------------------------------------------
Количество треков: 24Реальные значения DR: DR8
Частота: 44100 ГцКаналов: 2Разрядность: 16Битрейт: 672 кбит/сКодек: FLAC================================================================================

2021 - The World Series of Chill Out, Vol. 4

Издатель: Global Player Music
Носитель: WEB
Продолжительность: 01:44:05
Источник: deezer
Треклист :
01. Digital Rain - On the Other Side of the Soul (04:59)
02. T2'n - Warp Molecular (04:10)
03. Alexander Dancaless - Another (05:17)
04. Leandro Fresco - Los Años Que Vivimos en Peligro (04:51)
05. Aerium; Me3dian - Mist-Jiertiid (06:29)
06. Aiemo - No Signs (Instrumental) (04:45)
07. Triola - Schildergasse (05:31)
08. Enter 42 - Tired (01:33)
09. Simone Gatto - Wakefulness W/ Isochronic Tones (08:00)
10. Kaito - Travelled Between Souls (05:40)
11. Goda Brother - Rejection Story (06:03)
12. The Sad Lovers - Opening the Flower (02:59)
13. Nale - Free (03:58)
14. Alexis Salazar - Cian (03:09)
15. Lemongrass - Aloha (04:09)
16. Five Seasons - Heaven (04:51)
17. Thomas Lemmer - Lunar Eclipse (Softwaver Remix for the Nights) (04:19)
18. Eddie Silverton - Macrocozm (04:39)
19. Vune - Diula (04:48)
20. Vechigen; Matt Pincer - Himalaya (05:50)
21. Smooth Deluxe; Nizam Kharda - Vishvavara (03:31)
22. Yantra Mantra - Dha Dha Dha Dhi (04:22)

Лог проверки качества

-----------------------
DON'T MODIFY THIS FILE
-----------------------
PERFORMER: auCDtect Task Manager, ver. 1.6.0 RC1 build 1.6.0.1Copyright (c) 2008-2010 y-soft. All rights reservedhttp://y-soft.org
ANALYZER: auCDtect: CD records authenticity detector, version 0.8.2Copyright (c) 2004 Oleg Berngardt. All rights reserved.Copyright (c) 2004 Alexander Djourik. All rights reserved.
FILE: 22 - Yantra Mantra - Dha Dha Dha Dhi.flac Size: 28111674 Hash: 3E88A06C7F099D27078BE3BBA3B1B224 Accuracy: -m0 Conclusion: CDDA 94% Signature: 8E671CC56361D413A7C87E68CE89B74AF904479AFILE: 21 - Smooth Deluxe - Vishvavara.flac Size: 26565115 Hash: 38CB115176554D803ECA6D90C1076C8C Accuracy: -m0 Conclusion: ??? Signature: 272823FC875389D977E1DBD903CDE8F8D696F2B7FILE: 20 - Vechigen - Himalaya.flac Size: 35905905 Hash: 593C3E03284F2D044936595B5F19F461 Accuracy: -m0 Conclusion: CDDA 100% Signature: F3A3AD56443BB57D4D1046A2EE4CDE01B614675DFILE: 19 - Vune - Diula.flac Size: 26345672 Hash: 23FA9AFD58F932C5378AD96F231A7364 Accuracy: -m0 Conclusion: CDDA 100% Signature: 5401153FC4D37BCA76D6E271C17DCB39C708635CFILE: 18 - Eddie Silverton - Macrocozm.flac Size: 23517875 Hash: F1DAE14872983F32397DC4D1C9BFA4CA Accuracy: -m0 Conclusion: CDDA 85% Signature: FE63F083ED5E94F57AFE26852ED681512BA9F6CCFILE: 17 - Thomas Lemmer - Lunar Eclipse (Softwaver Remix for the Nights).flac Size: 25407138 Hash: D92F264D41EC7D97522AAD4B12E1AEBA Accuracy: -m0 Conclusion: CDDA 42% Signature: D7764741910E3B693F6CDAC90CCB82FA54A7BF4CFILE: 16 - Five Seasons - Heaven.flac Size: 29065104 Hash: 72AF14283274C01A93F55D6DBFD02267 Accuracy: -m0 Conclusion: CDDA 100% Signature: 00AE46F9111A7FBB86A28A624BA81CC8BA5447B0FILE: 15 - Lemongrass - Aloha.flac Size: 28576659 Hash: 5BB8188851471E4BD6F17FC3C2A9E793 Accuracy: -m0 Conclusion: CDDA 100% Signature: 71C1A20B6280F158567C10E1B204AE9E31B8752BFILE: 14 - Alexis Salazar - Cian.flac Size: 22408345 Hash: 4307F6209F5DBF13D43072E9AC7BDF2B Accuracy: -m0 Conclusion: CDDA 100% Signature: 2481B7D2CCACE2B030F0D65406EBFC1D9C30CCDBFILE: 13 - Nale - Free.flac Size: 27068611 Hash: 4D90AD717058A82385B26E6FF41951E8 Accuracy: -m0 Conclusion: CDDA 100% Signature: 2BAE33B6E5BD0A3A03768419F85826EA0322CBC1FILE: 12 - The Sad Lovers - Opening the Flower.flac Size: 16278153 Hash: 1D1D1C455AA3E289AD865F343C58DD29 Accuracy: -m0 Conclusion: CDDA 94% Signature: 1500D128C9CE199F91C21C28B54CE61A4670897DFILE: 11 - Goda Brother - Rejection Story.flac Size: 28491350 Hash: 154E4441D59736C129884CD89160906B Accuracy: -m0 Conclusion: CDDA 99% Signature: 9DD095B8686859FE990090086F25E510040022D1FILE: 10 - Kaito - Travelled Between Souls.flac Size: 26170508 Hash: C8154695C5E6D2B63C6605210484C3B1 Accuracy: -m0 Conclusion: CDDA 49% Signature: CED0D047D0BE7D10D2F0FA56D62465F3D1E8D04EFILE: 09 - Simone Gatto - Wakefulness W_ Isochronic Tones.flac Size: 30753165 Hash: 62142A683DA03E7CF0CCFAEB101C1FD3 Accuracy: -m0 Conclusion: CDDA 99% Signature: D182FCC2A987B6B8353A534CC63BFF655401204FFILE: 08 - Enter 42 - Tired.flac Size: 6258927 Hash: CBA0E88F47587D149CF6EDCAFE2C4AD5 Accuracy: -m0 Conclusion: CDDA 100% Signature: 3BFF58D1752B6BE88AE78FF61B63CC3821D84477FILE: 07 - Triola - Schildergasse.flac Size: 31054972 Hash: 6AB3998145ED36A66A33428E978644D9 Accuracy: -m0 Conclusion: CDDA 100% Signature: 2A84E79B9F6E61CBEC169BE1228F6EAA32C7481EFILE: 06 - Aiemo - No Signs (Instrumental).flac Size: 26072884 Hash: 44F2F73F3E6FC5D05110CCA7A2FEA29B Accuracy: -m0 Conclusion: CDDA 76% Signature: 036BC4F108C998065BB406C3FF99BE33B69D56CFFILE: 05 - Aerium - Mist-Jiertiid.flac Size: 31240096 Hash: FBEF35F1FE24D35D05543EDDC5C5E301 Accuracy: -m0 Conclusion: CDDA 100% Signature: 2EB1705EFB00006FC0C909543A59E851716BC6C3FILE: 04 - Leandro Fresco - Los Años Que Vivimos en Peligro.flac Size: 21451357 Hash: F0A45488DFB05A5958B7F4672DEEBF4E Accuracy: -m0 Conclusion: CDDA 100% Signature: 2984639029F99D5F50905384E6693E6A9869C80EFILE: 03 - Alexander Dancaless - Another.flac Size: 39194193 Hash: F1CD9C89DF4588A9613C04980304EAA4 Accuracy: -m0 Conclusion: CDDA 100% Signature: 9133B77C3A3A89EAADF99D48315043639CC782B3FILE: 02 - T2'n - Warp Molecular.flac Size: 22840596 Hash: FB6722E9B8E45E4EC9095C886C3E8CFB Accuracy: -m0 Conclusion: CDDA 100% Signature: 889AA63A61C1892F04CE46E586945D054807C8DEFILE: 01 - Digital Rain - On the Other Side of the Soul.flac Size: 31447266 Hash: F4B561CE713E27BF4AB1055DD79EA9F4 Accuracy: -m0 Conclusion: CDDA 100% Signature: EC8BC6A68002A7101D19EB68A8ECF6774A7C46DA

Лог DRM

foobar2000 1.5.5 / Замер динамического диапазона (DR) 1.1.1Дата отчёта:  2021-12-06 20:21:00
--------------------------------------------------------------------------------Анализ: Aerium, Me3dian / The World Series of Chill Out, Vol. 4 (1) Aiemo / The World Series of Chill Out, Vol. 4 (2) Alexander Dancaless / The World Series of Chill Out, Vol. 4 (3) Alexis Salazar / The World Series of Chill Out, Vol. 4 (4) Digital Rain / The World Series of Chill Out, Vol. 4 (5) Eddie Silverton / The World Series of Chill Out, Vol. 4 (6) Enter 42 / The World Series of Chill Out, Vol. 4 (7) Five Seasons / The World Series of Chill Out, Vol. 4 (8) Goda Brother / The World Series of Chill Out, Vol. 4 (9) Kaito / The World Series of Chill Out, Vol. 4 (10) Leandro Fresco / The World Series of Chill Out, Vol. 4 (11) Lemongrass / The World Series of Chill Out, Vol. 4 (12) Nale / The World Series of Chill Out, Vol. 4 (13) Simone Gatto / The World Series of Chill Out, Vol. 4 (14) Smooth Deluxe, Nizam Kharda / The World Series of Chill Out, Vol. 4 (15) T2'n / The World Series of Chill Out, Vol. 4 (16) The Sad Lovers / The World Series of Chill Out, Vol. 4 (17) Thomas Lemmer / The World Series of Chill Out, Vol. 4 (18) Triola / The World Series of Chill Out, Vol. 4 (19) Vechigen, Matt Pincer / The World Series of Chill Out, Vol. 4 (20) Vune / The World Series of Chill Out, Vol. 4 (21) Yantra Mantra / The World Series of Chill Out, Vol. 4 (22)--------------------------------------------------------------------------------
DR Пики RMS Продолжительность трека--------------------------------------------------------------------------------DR7 0.00 дБ -11.22 дБ 6:29 05-Mist-JiertiidDR5 0.00 дБ -6.21 дБ 4:46 06-No Signs (Instrumental)DR6 0.00 дБ -7.89 дБ 5:18 03-AnotherDR10 0.00 дБ -10.67 дБ 3:10 14-CianDR6 0.00 дБ -7.84 дБ 5:00 01-On the Other Side of the SoulDR7 -0.20 дБ -10.51 дБ 4:39 18-MacrocozmDR6 0.00 дБ -8.37 дБ 1:34 08-TiredDR9 -0.34 дБ -10.43 дБ 4:52 16-HeavenDR8 -0.07 дБ -11.25 дБ 6:03 11-Rejection StoryDR11 -0.43 дБ -12.74 дБ 5:41 10-Travelled Between SoulsDR9 -0.46 дБ -11.09 дБ 4:51 04-Los Años Que Vivimos en PeligroDR8 -0.01 дБ -9.18 дБ 4:10 15-AlohaDR7 0.00 дБ -10.04 дБ 3:58 13-FreeDR8 -0.50 дБ -9.83 дБ 8:00 09-Wakefulness W/ Isochronic TonesDR7 -0.02 дБ -8.60 дБ 3:31 21-VishvavaraDR6 -0.10 дБ -8.79 дБ 4:10 02-Warp MolecularDR11 0.00 дБ -13.59 дБ 3:00 12-Opening the FlowerDR8 -0.20 дБ -10.23 дБ 4:20 17-Lunar Eclipse (Softwaver Remix for the Nights)DR10 -0.30 дБ -12.86 дБ 5:31 07-SchildergasseDR6 -1.00 дБ -8.90 дБ 5:51 20-HimalayaDR7 0.00 дБ -8.99 дБ 4:49 19-DiulaDR8 -0.10 дБ -10.59 дБ 4:23 22-Dha Dha Dha Dhi--------------------------------------------------------------------------------
Количество треков: 22Реальные значения DR: DR8
Частота: 44100 ГцКаналов: 2Разрядность: 16Битрейт: 854 кбит/сКодек: FLAC================================================================================
 

The time now is: Today 02:51

All times are GMT + 4 Hours