Search found 67 matches

Author Message

Sound Forge

Post 29-Sep-2019 19:40

[Quote]

ABBYY FineReader - видео урок
Постер:
Производитель: FineReader
Сайт производителя: https://www.abbyy.com
Год выпуска: 2019
Язык: Мульти
Тип рипа: tracks + .cue
Аудио кодек: MP3
Видео кодек: MPEG4
Аудио: 140
Видео: 60
Описание: Отличный видеобзор,как пользоваться программой ABBYY FineReader

Отчет качества

отличное

Скриншот/треклист

Sound Forge

Post 10-Sep-2019 00:20

[Quote]

Dolby Atmos Demonstration Disc 2014 1080p Blu-ray AVC TrueHD 7.1 Atmos
Год выпуска: 2014
Страна: США
Студия: Dolby Laboratories Inc.
Жанр: Demo
Продолжительность: 00:18:00
Перевод: Не требуется
Русские субтитры: нет
Описание: Демонстрационный диск Dolby Atmos
Благодаря Dolby Atmos®, звук приходит к зрителям со всех направлений, в том числе и сверху. В новом формате сочетается многоканальная аудио «платформа» (channel-based audio bed) с объектно-ориентированным представлением звуков, что позволяет размещать и перемещать конкретные звуковые эффекты по всему театру, создавая захватывающе реалистичную и увлекательную звуковую атмосферу. Создатели звукового окружения и исполнители могут свободно смешивать эти компоненты в трехмерном 3D пространстве, управляя эффектами через тыловые каналы и бесшовно добавляя вертикальное измерение с помощью отдельных верхних каналов. В больших коммерческих кинотеатрах, эта новая система поддерживает до 128 аудио дорожек и до 64 независимых сигналов для акустических систем. В домашних театрах она автоматически адаптируется под конкретную конфигурации комплекта колонок.
Тип релиза: Blu-ray disc
Контейнер: BDMV
Видео: MPEG-4 AVC Video ~16664 kbps 1080p / 24 fps / 16:9 / High Profile 4.1
Аудио: Dolby TrueHD Atmos ~ 5930 kbps 7.1 / 48 kHz / 5930 kbps / 24-bit (AC3 Embedded: 5.1 / 48 kHz / 640 kbps)
Содержание:
Dolby Atmos Retail Loop (15:20) TrueHD 7.1 Atmos / DD+ 7.1 Atmos
Dolby Atmos In The Home (2:28) TrueHD 7.1 Atmos / DD+ 7.1 Atmos
Dolby Atmos Amaze Trailer (1:03) TrueHD 7.1 Atmos / DD+ 7.1 Atmos
Dolby Atmos Leaf Trailer (1:00) TrueHD 7.1 Atmos / DD+ 7.1 Atmos
Dolby Atmos Conductor Trailer (0:32) TrueHD 7.1 Atmos / DD+ 7.1 Atmos
Dolby Atmos Unfold Trailer (0:27) TrueHD 7.1 Atmos / DD+ 7.1 Atmos
Dolby Short Film: Silent (2:41) TrueHD 7.1 Atmos / DD+ 7.1 Atmos
Enrique Iglesias Music Video: Bailando (4:22) TrueHD 7.1 Atmos / DD+ 7.1 Atmos
Red Bull Video Clip: F1 Racing (1:02) TrueHD 7.1 Atmos / DD+ 7.1 Atmos
Red Bull Movie Trailer: On Any Sunday (2:05) TrueHD 7.1 Atmos / DD+ 7.1 Atmos
Napa Valley Dreams: Time-Lapse Clip (2:05) TrueHD 7.1 Atmos / DD+ 7.1 Atmos

MediaInfo

DISC INFO:
Disc Title: Dolby Atmos Demonstration Disc 2014 1080p Blu-ray AVC TrueHD 7.1 AtmosDisc Size: 3 643 450 354 bytesProtection: AACSBD-Java: YesBDInfo: 0.5.8
PLAYLIST REPORT:
Name: 00012.MPLSLength: 0:17:49.291 (h:m:s.ms)Size: 3 642 347 520 bytesTotal Bitrate: 27,25 Mbps
VIDEO:
Codec Bitrate Description----- ------- -----------MPEG-4 AVC Video 16664 kbps 1080p / 24 fps / 16:9 / High Profile 4.1
AUDIO:
Codec Language Bitrate Description----- -------- ------- -----------Dolby TrueHD Audio English 5930 kbps 7.1 / 48 kHz / 5930 kbps / 24-bit (AC3 Embedded: 5.1 / 48 kHz / 640 kbps)Dolby Digital Plus Audio English 640 kbps 5.1 / 48 kHz / 640 kbps
FILES:
Name Time In Length Size Total Bitrate---- ------- ------ ---- -------------00001.M2TS 0:00:00.000 0:02:28.583 454 244 352 24 45700020.M2TS 0:02:28.583 0:01:03.500 229 840 896 28 95600023.M2TS 0:03:32.083 0:01:00.250 174 649 344 23 19000027.M2TS 0:04:32.333 0:00:32.041 73 371 648 18 31900025.M2TS 0:05:04.375 0:00:27.041 91 127 808 26 95900024.M2TS 0:05:31.416 0:02:41.083 537 323 520 26 68500026.M2TS 0:08:12.500 0:04:22.250 1 023 873 024 31 23300022.M2TS 0:12:34.750 0:01:02.750 221 165 568 28 19600028.M2TS 0:13:37.500 0:02:05.916 427 149 312 27 13900029.M2TS 0:15:43.416 0:02:05.875 409 602 048 26 032
CHAPTERS:
Number Time In Length------ ------- ------01 0:00:00.000 0:02:28.58302 0:02:28.583 0:01:03.50003 0:03:32.083 0:01:00.25004 0:04:32.333 0:00:32.04105 0:05:04.375 0:00:27.04106 0:05:31.416 0:02:41.08307 0:08:12.500 0:04:22.25008 0:12:34.750 0:01:02.75009 0:13:37.500 0:02:05.91610 0:15:43.416 0:02:05.874

Скриншоты меню

Скриншоты

Sound Forge

Post 10-Sep-2019 00:20

[Quote]

Dolby Atmos Blu-Ray Demo Disc
Год выпуска: 2015
Страна: США
Студия: Dolby Laboratories Inc.
Жанр: Demo
Продолжительность: 02:14:00
Перевод: Не требуется
Русские субтитры: нет
-
Описание: Благодаря Dolby Atmos®, звук приходит к зрителям со всех направлений, в том числе и сверху. В новом формате сочетается многоканальная аудио «платформа» (channel-based audio bed) с объектно-ориентированным представлением звуков, что позволяет размещать и перемещать конкретные звуковые эффекты по всему театру, создавая захватывающе реалистичную и увлекательную звуковую атмосферу. Создатели звукового окружения и исполнители могут свободно смешивать эти компоненты в трехмерном 3D пространстве, управляя эффектами через тыловые каналы и бесшовно добавляя вертикальное измерение с помощью отдельных верхних каналов. В больших коммерческих кинотеатрах, эта новая система поддерживает до 128 аудио дорожек и до 64 независимых сигналов для акустических систем. В домашних театрах она автоматически адаптируется под конкретную конфигурации комплекта колонок.
-
Меню: есть, статичное

Содержание

Introducing Dolby Atmos For The Home (4:08) TrueHD 7.1 Atmos / DD+ 7.1 Atmos
Trailers:
Amaze (1:04) TrueHD 7.1 Atmos / DD+ 7.1 Atmos
Audiosphere (1:01) TrueHD 7.1 Atmos / DD+ 7.1 Atmos
Horizon (1:53) TrueHD 7.1 Atmos / DD+ 7.1 Atmos
Leaf (1:00) TrueHD 7.1 Atmos / DD+ 7.1 Atmos
Shattered (0:49) TrueHD 7.1 Atmos / DD+ 7.1 Atmos
Movies & TV:
Game Of Thrones (2:46) TrueHD 7.1 Atmos / DD+ 7.1 Atmos
Insurgent (2:18) TrueHD 7.1 Atmos / DD+ 7.1 Atmos
John Wick (4:16) TrueHD 7.1 Atmos / DD+ 7.1 Atmos
Jupiter Ascending (2:08) TrueHD 7.1 Atmos / DD+ 7.1 Atmos
Mad Max: Fury Road (2:24) TrueHD 7.1 Atmos / DD+ 7.1 Atmos
Transformers: Age Of Extinction (3:23) TrueHD 7.1 Atmos / DD+ 7.1 Atmos
Unbroken (5:00) TrueHD 7.1 Atmos / DD+ 7.1 Atmos
Audio Only:
747 Takeoff (0:39) TrueHD 7.1 Atmos / DD+ 7.1 Atmos
Helicopter Demo (0:58) TrueHD 7.1 Atmos / DD+ 7.1 Atmos
The Encounter (1:33) TrueHD 7.1 Atmos / DD+ 7.1 Atmos
Rainstorm (0:48) TrueHD 7.1 Atmos / DD+ 7.1 Atmos
Santeria (1:25) TrueHD 7.1 Atmos / DD+ 7.1 Atmos
Music:
Makoto Nakura – Ciaccona From Partita II (6:31) TrueHD 7.1 Atmos / DD+ 7.1 Atmos
Def Tech – Marathon (Japanese) (4:40) TrueHD 7.1 Atmos / DD+ 7.1 Atmos
Philharmonia Baroque – Haydn Symphonies (2:26) TrueHD 7.1 Atmos / DD+ 7.1 Atmos
Cappella SF – Dance (5:18) TrueHD 7.1 Atmos / DD+ 7.1 Atmos
Sammi Cheng – Prologue (Cantonese) (5:26) TrueHD 7.1 Atmos / DD+ 7.1 Atmos
Enrique Iglesias – Bailando (4:23) TrueHD 7.1 Atmos / DD+ 7.1 Atmos
Sports:
On Any Sunday: The Next Chapter (1:40) TrueHD 7.1 Atmos / DD+ 7.1 Atmos
Red Bull F1 (1:03) TrueHD 7.1 Atmos / DD+ 7.1 Atmos
Where The Trail Ends (2:23) TrueHD 7.1 Atmos / DD+ 7.1 Atmos
Video Games:
Star Wars Battlefront (5:19) TrueHD 7.1 Atmos / DD+ 7.1 Atmos
Test Tones:
Test Tones 5.1.2 (8:11) TrueHD 7.1 Atmos
Test Tones 5.1.4 (10:08) TrueHD 7.1 Atmos
Test Tones 7.1.2 (10:12) TrueHD 7.1 Atmos
Test Tones 7.1.4 (12:08) TrueHD 7.1 Atmos
Test Tones 9.1.6 (16:12) TrueHD 7.1 Atmos
Тип релиза: Blu-ray disc
Контейнер: BDMV
Видео: MPEG-4 AVC / NTSC 16:9 / 1920x1080 (1,78:1) / 20135 kbps / 29,970 fps / 60 fps / [email protected]
Аудио 1: English / Dolby TrueHD Audio Atmos / 7.1 Ch / 48 kHz / 6473 kbps / 24-bit (AC3 Embedded: 5.1 Ch / 48 kHz / 640 kbps)
Аудио 2: English / Dolby Digital Plus Audio / 5.1 Ch / 48 kHz / 640 kbps

BDInfo
Disc Title:     Dolby Atmos Blu-Ray Demo Disc (Sep 2015)Disc Size:      23 568 188 387 bytesProtection:     AACSBD-Java:        YesBDInfo:         0.5.8
Notes:
BDINFO HOME: Cinema Squid http://www.cinemasquid.com/blu-ray/tools/bdinfo
INCLUDES FORUMS REPORT FOR: AVS Forum Blu-ray Audio and Video Specifications Thread http://www.avsforum.com/avs-vb/showthread.php?t=1155731
********************PLAYLIST: 00050.MPLS********************
Total   Video
Title                                                           Codec   Length  Movie Size      Disc Size       Bitrate Bitrate Main Audio Track                          Secondary Audio Track
-----                                                           ------  ------- --------------  --------------  ------- ------- ------------------                        ---------------------
00050.MPLS                                                      AVC     0:18:53 4 412 332 032   23 568 188 387  31,13   20,13   Dolby TrueHD 7.1 6473Kbps (48kHz/24-bit)  DD AC3+ 5.1 640Kbps
DISC INFO:
Disc Title:     Dolby Atmos Blu-Ray Demo Disc (Sep 2015)
Disc Size:      23 568 188 387 bytes
Protection:     AACS
BD-Java:        Yes
BDInfo:         0.5.8
PLAYLIST REPORT:
Name:                   00050.MPLS
Length:                 0:18:53.999 (h:m:s.ms)
Size:                   4 412 332 032 bytes
Total Bitrate:          31,13 Mbps
VIDEO:
Codec                   Bitrate             Description
-----                   -------             -----------
MPEG-4 AVC Video        20135 kbps          1080i / 29,970 fps / 16:9 / High Profile 4.1
AUDIO:
Codec                           Language        Bitrate         Description
-----                           --------        -------         -----------
Dolby TrueHD Audio              English         6473 kbps       7.1 / 48 kHz / 6473 kbps / 24-bit (AC3 Embedded: 5.1 / 48 kHz / 640 kbps)
Dolby Digital Plus Audio        English         640 kbps        5.1 / 48 kHz / 640 kbps
FILES:
Name            Time In         Length          Size            Total Bitrate
----            -------         ------          ----            -------------
00019.M2TS      0:00:00.000     0:04:39.512     1 302 865 920   37 290
00020.M2TS      0:04:39.512     0:06:31.057     1 567 813 632   32 073
00021.M2TS      0:11:10.569     0:05:17.950     1 182 388 224   29 750
00022.M2TS      0:16:28.520     0:02:25.478     359 264 256     19 756
CHAPTERS:
Number          Time In         Length          Avg Video Rate  Max 1-Sec Rate  Max 1-Sec Time  Max 5-Sec Rate  Max 5-Sec Time  Max 10Sec Rate  Max 10Sec Time  Avg Frame Size  Max Frame Size  Max Frame Time
------          -------         ------          --------------  --------------  --------------  --------------  --------------  --------------  --------------  --------------  --------------  --------------
1               0:00:00.000     0:04:39.512     25 017 kbps     59 283 kbps     00:00:02.902    35 799 kbps     00:00:02.902    31 838 kbps     00:00:02.902    104 329 bytes   616 682 bytes   00:00:03.136
2               0:04:39.512     0:06:31.057     22 245 kbps     31 846 kbps     00:07:44.931    27 223 kbps     00:06:13.940    26 347 kbps     00:06:13.940    92 780 bytes    495 313 bytes   00:07:16.202
3               0:11:10.569     0:05:17.950     18 299 kbps     26 717 kbps     00:11:13.672    21 037 kbps     00:11:13.739    19 975 kbps     00:11:13.572    76 322 bytes    347 246 bytes   00:12:02.822
4               0:16:28.520     0:02:25.478     9 095 kbps      42 173 kbps     00:18:51.830    15 469 kbps     00:16:31.523    12 087 kbps     00:16:31.523    37 944 bytes    761 082 bytes   00:18:51.864
STREAM DIAGNOSTICS:
File            PID             Type            Codec           Language                Seconds                 Bitrate                 Bytes           Packets
----            ---             ----            -----           --------                --------------          --------------          -------------   -----
00019.M2TS      4113 (0x1011)   0x1B            AVC                                     279,412                 25 026                  874 065 368     4 759 506
00019.M2TS      4352 (0x1100)   0x83            TrueHD          eng (English)           279,412                 8 139                   284 270 148     1 754 800
00019.M2TS      4353 (0x1101)   0x84            AC3+            eng (English)           279,412                 1 280                   44 723 200      262 050
00020.M2TS      4113 (0x1011)   0x1B            AVC                                     390,957                 22 251                  1 087 383 403   5 922 568
00020.M2TS      4352 (0x1100)   0x83            TrueHD          eng (English)           390,957                 5 922                   289 428 410     1 863 366
00020.M2TS      4353 (0x1101)   0x84            AC3+            eng (English)           390,957                 1 280                   62 571 520      366 630
00021.M2TS      4113 (0x1011)   0x1B            AVC                                     317,884                 18 303                  727 271 024     3 962 989
00021.M2TS      4352 (0x1100)   0x83            TrueHD          eng (English)           317,884                 7 616                   302 622 736     1 886 514
00021.M2TS      4353 (0x1101)   0x84            AC3+            eng (English)           317,884                 1 280                   50 872 320      298 080
00022.M2TS      4113 (0x1011)   0x1B            AVC                                     145,379                 9 102                   165 401 142     903 130
00022.M2TS      4352 (0x1100)   0x83            TrueHD          eng (English)           145,379                 7 263                   131 981 258     826 744
00022.M2TS      4353 (0x1101)   0x84            AC3+            eng (English)           145,379                 1 281                   23 275 520      136 380
QUICK SUMMARY:
Disc Title: Dolby Atmos Blu-Ray Demo Disc (Sep 2015)Disc Size: 23 568 188 387 bytesProtection: AACSBD-Java: YesPlaylist: 00050.MPLSSize: 4 412 332 032 bytesLength: 0:18:53.999Total Bitrate: 31,13 MbpsVideo: MPEG-4 AVC Video / 20135 kbps / 1080i / 29,970 fps / 16:9 / High Profile 4.1Audio: English / Dolby TrueHD Audio / 7.1 / 48 kHz / 6473 kbps / 24-bit (AC3 Embedded: 5.1 / 48 kHz / 640 kbps)Audio: English / Dolby Digital Plus Audio / 5.1 / 48 kHz / 640 kbps[/pre]

Скриншоты

Sound Forge

Post 10-Sep-2019 00:20

[Quote]

DTS Blu-Ray Demo Disc Vol.20
Год выпуска: 2016
Страна: США
Жанр: Demo
Продолжительность: 01:30:00
Перевод: Не требуется
Русские субтитры: нет
Описание: Демонстрационный диск DTS-HD.
Тип релиза: Blu-ray disc
Контейнер: BDMV
Видео: MPEG-4 AVC Video / 24542 kbps / 1080p / 23.976 fps / 16:9 / High Profile 4.1
Аудио 1: English / DTS-HD Master Audio / 7.1 / 48 kHz / 5552 kbps / 24-bit (DTS Core: 5.1 / 48 kHz / 1509 kbps / 24-bit)
Аудио 2: English / DTS-HD Master Audio / 7.1 / 48 kHz / 7851 kbps / 24-bit (DTS Core: 5.1 / 48 kHz / 1509 kbps / 24-bit)
Аудио 3: English / DTS-HD Master Audio / 2.0 / 48 kHz / 2082 kbps / 24-bit (DTS Core: 2.0 / 48 kHz / 1509 kbps / 24-bit)

Содержание

Movies:
Dust (2:49) DTS-HD MA 7.1 / DTS:X / DTS Headphone:X
Exodus: Gods And Kings (1:07) DTS-HD MA 7.1
Furious 7 (1:24) DTS-HD MA 7.1
Giant Killer Plants (2:59) DTS-HD MA 7.1 / DTS:X / DTS Headphone:X
Gravity (1:26) DTS-HD MA 7.1 / DTS:X / DTS Headphone:X
Hitman: Agent 47 (1:02) DTS-HD MA 7.1
Jurrassic World (0:46) DTS-HD MA 7.1
Kingsman: The Secret Service (2:35) DTS-HD MA 7.1
The Last Witch Hunter (2:30) DTS-HD MA 7.1 / DTS:X / DTS Headphone:X
The Seventh Son (1:50) DTS-HD MA 7.1
Waveform (2:45) DTS-HD MA 7.1 / DTS:X / DTS Headphone:X
Music:
Claudiu Voicu – Chasing Lights (3:26) DTS-HD MA 7.1 / DTS:X / DTS Headphone:X
Holly Miranda – All I Want Is To Be Your Girl (2:43) DTS-HD MA 7.1 / DTS:X / DTS Headphone:X
Imagine Dragons – I Bet My Life (3:42) DTS-HD MA 7.1 / DTS:X / DTS Headphone:X
Imagine Dragons – Shots (4:01) DTS-HD MA 7.1 / DTS:X / DTS Headphone:X
Jan Minol – Insight (2:43) DTS-HD MA 7.1 / DTS:X / DTS Headphone:X
Jesse Harris – Miyazaki (2:38) DTS-HD MA 7.1 / DTS:X / DTS Headphone:X
Kaya Stewart – Everything I Do Is Wrong (3:38) DTS-HD MA 7.1 / DTS:X / DTS Headphone:X
Nigel Stanford – Cymatics (5:27) DTS-HD MA 7.1 / DTS:X / DTS Headphone:X
Extras:
DTS:X – All Around Us (0:49) DTS-HD MA 7.1
DTS – Sound Unbound Callout 11.1 (0:42) DTS-HD MA 7.1 / DTS:X
DTS – Sound Unbound Callout 7.1 (0:30) DTS-HD MA 7.1
DTS – Sound Unbound Callout 5.1 (0:25) DTS-HD MA 5.1
DTS Listen (Long) (0:27) DTS-HD MA 7.1
DTS Listen (Short) (0:09) DTS-HD MA 7.1
DTS Listen:X (Long) (0:33) DTS-HD MA 7.1 / DTS:X
DTS Listen:X (Short) (0:09) DTS-HD MA 7.1 / DTS:X
DTS Headphone:X – Callout (0:42) DTS Headphone:X
BDInfo
Disc Title:     DTS Blu-Ray Demo Disc Vol.20 2016Disc Size:      17 360 659 545 bytesProtection:     AACSBD-Java:        NoBDInfo:         0.5.8
Notes:
BDINFO HOME: Cinema Squid http://www.cinemasquid.com/blu-ray/tools/bdinfo
INCLUDES FORUMS REPORT FOR: AVS Forum Blu-ray Audio and Video Specifications Thread http://www.avsforum.com/avs-vb/showthread.php?t=1155731
********************PLAYLIST: 00053.MPLS********************
Total   Video
Title                                                           Codec   Length  Movie Size      Disc Size       Bitrate Bitrate Main Audio Track                          Secondary Audio Track
-----                                                           ------  ------- --------------  --------------  ------- ------- ------------------                        ---------------------
00053.MPLS                                                      AVC     0:05:27 1 742 186 496   17 360 659 545  42,55   24,54   DTS-HD Master 7.1 5552Kbps (48kHz/24-bit) DTS-HD Master 7.1 7851Kbps (48kHz/24-bit)
DISC INFO:
Disc Title:     DTS Blu-Ray Demo Disc Vol.20 2016
Disc Size:      17 360 659 545 bytes
Protection:     AACS
BD-Java:        No
BDInfo:         0.5.8
PLAYLIST REPORT:
Name:                   00053.MPLS
Length:                 0:05:27.535 (h:m:s.ms)
Size:                   1 742 186 496 bytes
Total Bitrate:          42,55 Mbps
(*) Indicates included stream hidden by this playlist.
VIDEO:
Codec                   Bitrate             Description
-----                   -------             -----------
MPEG-4 AVC Video        24542 kbps          1080p / 23,976 fps / 16:9 / High Profile 4.1
AUDIO:
Codec                           Language        Bitrate         Description
-----                           --------        -------         -----------
DTS-HD Master Audio             English         5552 kbps       7.1 / 48 kHz / 5552 kbps / 24-bit (DTS Core: 5.1 / 48 kHz / 1509 kbps / 24-bit)
* DTS-HD Master Audio           English         7851 kbps       7.1 / 48 kHz / 7851 kbps / 24-bit (DTS Core: 5.1 / 48 kHz / 1509 kbps / 24-bit)
* DTS-HD Master Audio           English         2082 kbps       2.0 / 48 kHz / 2082 kbps / 24-bit (DTS Core: 2.0 / 48 kHz / 1509 kbps / 24-bit)
FILES:
Name            Time In         Length          Size            Total Bitrate
----            -------         ------          ----            -------------
00007.M2TS      0:00:00.000     0:05:27.535     1 742 186 496   42 553
CHAPTERS:
Number          Time In         Length          Avg Video Rate  Max 1-Sec Rate  Max 1-Sec Time  Max 5-Sec Rate  Max 5-Sec Time  Max 10Sec Rate  Max 10Sec Time  Avg Frame Size  Max Frame Size  Max Frame Time
------          -------         ------          --------------  --------------  --------------  --------------  --------------  --------------  --------------  --------------  --------------  --------------
1               0:00:00.000     0:05:27.535     24 542 kbps     37 883 kbps     00:05:15.481    28 396 kbps     00:05:11.477    27 250 kbps     00:05:06.472    127 967 bytes   603 917 bytes   00:05:16.274
STREAM DIAGNOSTICS:
File            PID             Type            Codec           Language                Seconds                 Bitrate                 Bytes           Packets
----            ---             ----            -----           --------                --------------          --------------          -------------   -----
00007.M2TS      4113 (0x1011)   0x1B            AVC                                     327,452                 24 548                  1 004 796 336   5 465 436
00007.M2TS      4352 (0x1100)   0x86            DTS-HD MA       eng (English)           327,452                 5 553                   227 310 140     1 286 370
00007.M2TS      4353 (0x1101)   0x86            DTS-HD MA       eng (English)           327,452                 7 853                   321 415 780     1 797 761
00007.M2TS      4354 (0x1102)   0x86            DTS-HD MA       eng (English)           327,452                 2 083                   85 244 496      513 304
QUICK SUMMARY:
Disc Title: DTS Blu-Ray Demo Disc Vol.20 2016Disc Size: 17 360 659 545 bytesProtection: AACSBD-Java: NoPlaylist: 00053.MPLSSize: 1 742 186 496 bytesLength: 0:05:27.535Total Bitrate: 42,55 MbpsVideo: MPEG-4 AVC Video / 24542 kbps / 1080p / 23,976 fps / 16:9 / High Profile 4.1Audio: English / DTS-HD Master Audio / 7.1 / 48 kHz / 5552 kbps / 24-bit (DTS Core: 5.1 / 48 kHz / 1509 kbps / 24-bit)* Audio: English / DTS-HD Master Audio / 7.1 / 48 kHz / 7851 kbps / 24-bit (DTS Core: 5.1 / 48 kHz / 1509 kbps / 24-bit)* Audio: English / DTS-HD Master Audio / 2.0 / 48 kHz / 2082 kbps / 24-bit (DTS Core: 2.0 / 48 kHz / 1509 kbps / 24-bit)
(*) Some playlists on this disc have hidden tracks. These tracks are marked with an asterisk.[/pre]

Скриншоты меню

Скриншоты

Sound Forge

Post 10-Sep-2019 00:20

[Quote]

Blu-Ray демо-диск от Samsung 1 2009 / 2009 Samsung TV Demonstration Blu-Ray Disc Vol.1
Год выпуска: 2009
Жанр: Демо
Продолжительность: 81min.
Перевод: Не требуется
Русские субтитры: нет
Описание:
Image Quality Demo:
3 Cities, 3 Young Artists (6:27) DTS-HD MA 5.1
Sports & Nature (4:02) DTS-HD MA 5.1
LED TV Demo:
LED TV Image Demo (1:52) DTS-HD MA 5.1
ToC / Crystal Design Demo (2:04) DTS-HD MA 5.1
ECO-Friendly Concept Demo (1:48) DTS-HD MA 5.1
Sound Demo / Music:
Waldbühne Berlin (6:44) DTS-HD MA 5.1
Libera Angel Voices (4:47) DTS-HD MA 5.1
Legends Of Jazz (9:00) DTS-HD MA 5.1
Entertainment Demo / Fashion:
The Best Fashion Shows In The World (7:26) DTS-HD MA 5.1
Fashion, We Make Culture (3:46) DTS-HD MA 5.1
Entertainment Demo / Movie:
The Dark Knight (1:38) DTS-HD MA 5.1
Speed Racer (2:32) DTS-HD MA 5.1
Warner Bros. Blu-Ray Demo (1:15) DTS-HD MA 5.1
Entertainment Demo / Animation:
Bolt (1:49) DTS-HD MA 5.1
Up (1:47) DTS-HD MA 5.1
Bakkom (3:22) DTS-HD MA 5.1
Vicky & Johnny (3:41) DTS-HD MA 5.1
Entertainment Demo / Game:
Gears Of War 2 (1:08) DTS-HD MA 5.1
Halo Wars (3:27) DTS-HD MA 5.1
Viva Pinata (1:26) DTS-HD MA 5.1
Banjo-Kazooie (1:36) DTS-HD MA 5.1
Sonic Unleashed (2:57) DTS-HD MA 5.1
Tomb Raider: Underworld (2:12) DTS-HD MA 5.1
Entertainment Demo / Leisure:
4 Seasons In Everland (2:59) DTS-HD MA 5.1
Доп. информация:
Качественные деморолики от Samsung, треллеры к фильмам и играм.
http://www.demo-world.eu/demo-dvds/2009-samsung-tv-demonstration-blu-ray-v1.php
Качество: Blu-Ray
Формат: BDMV
Видео кодек: AVC
Аудио кодек: DTS-HD 5.1
Видео: AVC 1920x1080 33.98fps
Аудио: DTS-HD MA 5.1

Скриншоты



Мои текущие Full HD раздачи:

Sound Forge

Post 10-Sep-2019 00:20

[Quote]

Dolby Atmos Blu-Ray Demo Disc (Sep 2016) / Dolby Atmos Blu-Ray Demo Disc (Sep 2016)
Год выпуска: 2016
Страна: США
Студия: Dolby Laboratories Inc.
Жанр: Demo
Продолжительность: 2:27:00
Описание: Благодаря Dolby Atmos®, звук приходит к зрителям со всех направлений, в том числе и сверху. В новом формате сочетается многоканальная аудио «платформа» (channel-based audio bed) с объектно-ориентированным представлением звуков, что позволяет размещать и перемещать конкретные звуковые эффекты по всему театру, создавая захватывающе реалистичную и увлекательную звуковую атмосферу. Создатели звукового окружения и исполнители могут свободно смешивать эти компоненты в трехмерном 3D пространстве, управляя эффектами через тыловые каналы и бесшовно добавляя вертикальное измерение с помощью отдельных верхних каналов. В больших коммерческих кинотеатрах, эта новая система поддерживает до 128 аудио дорожек и до 64 независимых сигналов для акустических систем. В домашних театрах она автоматически адаптируется под конкретную конфигурации комплекта колонок.
Тип релиза: Blu-ray disc
Контейнер: BDMV
Видео: MPEG-4 AVC / NTSC 16:9 / 1920x1080 (1,78:1) / 20135 kbps / 29,970 fps / 24 fps / [email protected]
Аудио: English / Dolby TrueHD Audio Atmos / 7.1 Ch / 48 kHz / 6473 kbps / 24-bit (AC3 Embedded: 5.1 Ch / 48 kHz / 640 kbps)
Аудио 2: English / Dolby Digital Plus Audio / 5.1 Ch / 48 kHz / 640 kbps

Скриншоты






Sound Forge

Post 10-Sep-2019 00:20

[Quote]

Blu-Ray демо-диск от Samsung 3 2007 / Imagine A New World Of Incredible Detail BD-P1200
Год выпуска: 2007
Жанр: Демо
Продолжительность: 25min.
Перевод: Не требуется
Русские субтитры: нет
Описание:
It's All In The Detail 2 (2:41) DD 5.1
RV (2:19) DD 5.1
Open Season (2:39) DD 5.1
The Legends Of Classic Cars (3:43) DD 5.1
Mission Impossible 3 (1:38) DD 5.1
Harry Potter And The Goblet Of Fire (1:26) DD 5.1
Masters Of Time (3:22) DD 5.1
Happy Feet (1:12) DD 5.1
Batman Begins (4:14) DD 5.1
Firewall (1:07) DD 5.1
Доп. информация: Качественные деморолики от Samsung и треллеры к фильмам.
http://www.demo-world.eu/demo-dvds/samsung-imagine-a-new-world-bd-p1200.php
Качество: Blu-Ray
Формат: 1080/60i & 24p
Видео кодек: VC1
Аудио кодек: AC3
Видео: VC1 1920x1080 23.98fps
Аудио: Dolby AC3 48000Hz 6ch

Скриншоты



Мои текущие Full HD раздачи:

dmitri22

Post 02-Jun-2019 17:25

[Quote]

Official DR value: DR8

Sound Forge

Post 26-Sep-2018 08:35

[Quote]

Audiophile sound test II B-side (сборник для тестирования HI END аппаратуры)
Жанр: classic, folk, ethnic
Носитель: SACD
Страна-производитель диска: China
Год издания: 2008
Издатель (лейбл): Delphine Music DaVinci record
Аудиокодек: FLAC (*.flac)
Тип рипа: tracks+.cue
Битрейт аудио: lossless
Продолжительность: 00:52:58
Источник (релизер): Неизвестно
Наличие сканов в содержимом раздачи: да
Треклист:
01. Holy Sanctified Love Love (surround sound field male)
02. Percussion Instruments rapid beat percussion (shocking blow-dimensional test)
03. The Mass Mass (large force field surround sound pressure)
04. Carmen Carmen (wood guitar playing classic tracks)
05. Violin Saber Dance saber dance (Dream Crazy burn burst)
06. Colour To The Moon add color to the Moon (baritone)
07. Vincent Vincent (Prince of Love Songs intoxicating song)
08. Ray Of Love love light (intoxicating female)
09. Pearl Harbor Pearl Harbor (blasting machine will not miss recording model)
10. Nicolo Paganini / Sonata Concertata (Sonata for violin and guitar)
11. William Jacksoncorryvreckan bagpipes (Ireland passion)
12. Double Bass Double Bass (tendon test)
Доп. информация: Всего в коллекции Audiophile sound test 3 части, состоящих из нескольких дисков.
Audiophile sound test II A-side можно скачать здесь:
Audiophile sound test III A-side можно скачать здесь:
Audiophile sound test III B-side можно скачать здесь:
Другие мои раздачи здесь:

Об альбоме (сборнике)

Этот сборник был создан китайскими организациями China Great Wall of Art и Culture Center of the total distribution для того, чтобы с его помощью слушатель смог протестировать свою музыкальную аппаратуру класса HI END. Каждая композиция сборника акцентирует внимание слушателя на определённых звуковых частотах и звучании системы, о чём можно узнать из дополнительных пометок в названиях треков. Оригинальный текст был написан на китайсом языке и переведён на английский с помощью Гугл-переводчика. Так как на русский язык названия песен он перевёл слишком фривольно и бессмысленно, оставил английские названия и комментарии в скобках. Китайцы обещают слушателю "звуковой праздник", правда, счастливые обладатели HI END аппаратуры вряд ли удовлетворятся FLAC-вариантом. Что ж, по крайней мере, песни в этом сборнике мелодичные и приятные уху.
Приятного прослушивания!

Audiochecker log

AUDIOCHECKER v2.0 beta (build 457) - by Dester - [email protected]
~~~~~~~~~~~~~~~~~~~~~~~~~~~~~~~~~~
-=== НЕ РЕДАКТИРУЙТЕ ЭТОТ ФАЙЛ! ===-
Путь: ...\Audiophile sound test II B-side
1 -=- Audiophile sound test II B-side.flac -=- CDDA (100%)
67012628

Sound Forge

Post 11-Apr-2019 14:30

[Quote]

The DALI CD Volume 5 - In Admiration of Music (2018)
Постер:
Производитель: DALI
Сайт производителя: https://www.dali-speakers.com/ru/music/the-dali-cds/dali-cdlp-vol-5/
Год выпуска: 2018
Язык: Английский
Тип рипа: tracks + .cue
Аудио кодек: FLAC
Аудио: 44.1 kHz, 16bit, stereo
Описание: Промо-диск известной датской фирмы DALI - производителя акустических систем

Отчет качества

AUDIOCHECKER v2.0 beta (build 457) - by Dester - [email protected]
~~~~~~~~~~~~~~~~~~~~~~~~~~~~~~~~~~
-=== НЕ РЕДАКТИРУЙТЕ ЭТОТ ФАЙЛ! ===-
Путь: ...\VA - The DALI CD Vol. 5 (2018)
01 -=- 01. Hush - Up To The Mountain.flac -=- CDDA (100%)
02 -=- 02. Erann DD - Sugar Man.flac -=- CDDA (100%)
03 -=- 03. Caroline Henderson - Be Here Now.flac -=- CDDA (99%)
04 -=- 04. Go Go Berlin - Plastic Sky.flac -=- CDDA (100%)
05 -=- 05. Operazione - Il Core Vi Dono (from Cosi Fan Tutte).flac -=- CDDA (100%)
06 -=- 06. Oh Land - Desert Island.flac -=- CDDA (100%)
07 -=- 07. Jacob Dinesen - Dancing Devil.flac -=- CDDA (100%)
08 -=- 08. GinmanBlachmanDahl - Eight Bars On The Way Home.flac -=- CDDA (100%)
09 -=- 09. Wangel - Time To Eat.flac -=- CDDA (100%)
10 -=- 10. LiveStrings - Norwegian Sunset.flac -=- CDDA (99%)
11 -=- 11. Thorbjorn Risager & The Black Tornado - I'm Not Givin' In.flac -=- CDDA (100%)
12 -=- 12. Jacob Bellens - Beneath A Cloud.flac -=- CDDA (99%)
13 -=- 13. Dreamers' Circus - Casper.flac -=- CDDA (100%)
14 -=- 14. Pernille Rosendahl - Feet On The Ground - Rework.flac -=- CDDA (100%)
15 -=- 15. Dune - Hedonism.flac -=- CDDA (100%)
16 -=- 16. Rhino - Summer In The City.flac -=- CDDA (100%)
17 -=- 17. Zar Paulo - Hills.flac -=- CDDA (100%)
Сводка 99,82% CDDA
219865364

Скриншот/треклист

01. Hush – Up to the Mountain [03:06]
02. Erann DD – Sugar Man [04:33]
03. Caroline Henderson – Be Here Now [04:04]
04. Go Go Berlin – Plastic Skye [04:48]
05. Operazione – Il Core Vi Dono [04:21]
06. Oh Land – Desert Island [05:06]
07. Jakob Dinesen – Dancing Devil [04:30]
08. GinmanBlachmanDahl – Eight Bars on the Way Home [04:56]
09. Wangel – Time to Eat [04:23]
10. LiveStrings – Norwegian Sunset [04:01]
11. Thorbjørn Risager & The Black Tornado – I'm Not Giving In [04:27]
12. Jacob Bellens – Beneath a Cloud [05:14]
13. Dreamers’ Circus – Casper [03:19]
14. Pernille Rosendahl – Feet on the Ground - Rework [04:33]
15. Dúné – Hedonism [03:42]
16. Rhino – Summer in the City [04:08]
17. Zar Paulo – Hills [02:59]

Доп. информация

Источник - рип из интернета

Sound Forge

Post 26-Sep-2018 08:35

[Quote]

Audiophile sound test III B-side (сборник для тестирования HI END аппаратуры)
Жанр: classic, folk, ethnic
Носитель: SACD
Страна-производитель диска: China
Год издания: 2008
Издатель (лейбл): Delphine Music DaVinci record
Аудиокодек: FLAC
Тип рипа: tracks+.cue
Битрейт аудио: lossless
Продолжительность: 00:58:29
Источник (релизер): Неизвестно
Наличие сканов в содержимом раздачи: да
Треклист:
01. Symphony Symphony (fever classic)
02. Traditional Sounds Of Norway Norwegian traditional music (elegant mezzo-soprano)
03. Four Wild Horses four Broncos (mellow baritone)
04. Turned Upside Down My uneasy (calm female voice)
05. Old Crow Old Crow (mellow male)
06. Awaguli Ava Kori (SOUNDS Girl)
07. Corcovado Branch may Vado (intoxicated mezzo)
08. Trip Around The Sun Around the Sun (fresh female)
09. Tears In Heaven Tears in Heaven (tenderness Girl)
10. Paganini Recital Pa Geni Ni: Zhong Qu (sparkling violin)
11. Duet For Cello And Bass Cello and Double Bass Ensemble (Bass Classic)
12. A Lover Lover In Berlin Berlin (full mezzo-soprano)
Доп. информация: Всего в коллекции Audiophile sound test 3 части, состоящих из нескольких дисков.
Audiophile sound test III A-side можно скачать здесь:
Audiophile sound test II A-side можно скачать здесь:
Audiophile sound test II B-side можно скачать здесь:
Другие мои раздачи здесь:

Об альбоме (сборнике)

Этот сборник был создан китайскими организациями China Great Wall of Art и Culture Center of the total distribution для того, чтобы с его помощью слушатель смог протестировать свою музыкальную аппаратуру класса HI END. Каждая композиция сборника акцентирует внимание слушателя на определённых звуковых частотах и звучании системы, о чём можно узнать из дополнительных пометок в названиях треков. Оригинальный текст был написан на китайсом языке и переведён на английский с помощью Гугл-переводчика. Так как на русский язык названия песен он перевёл слишком фривольно и бессмысленно, оставил английские названия и комментарии в скобках. Китайцы обещают слушателю "звуковой праздник", правда, счастливые обладатели HI END аппаратуры вряд ли удовлетворятся FLAC-вариантом. Что ж, по крайней мере, песни в этом сборнике мелодичные и приятные уху.
Приятного прослушивания!

Audiochecker log

AUDIOCHECKER v2.0 beta (build 457) - by Dester - [email protected]
~~~~~~~~~~~~~~~~~~~~~~~~~~~~~~~~~~
-=== НЕ РЕДАКТИРУЙТЕ ЭТОТ ФАЙЛ! ===-
Путь: ...\Audiophile sound test III B-side
1 -=- Audiophile sound test III 2DSD-DISC B.flac -=- CDDA (99%)
45434884

Sound Forge

Post 26-Sep-2018 08:35

[Quote]

Audiophile sound test II A-side (сборник для тестирования HI END аппаратуры)
Жанр: classic, folk, ethnic
Носитель: SACD
Страна-производитель диска (релиза): China
Год издания: 2008
Издатель (лейбл): Delphine Music DaVinci record
Аудиокодек: FLAC (*.flac)
Тип рипа: tracks+.cue
Битрейт аудио: lossless
Продолжительность: 01:03:11
Источник (релизер): Неизвестно
Наличие сканов в содержимом раздачи: да
Треклист:
01. River Dance Riverdance (broken through the wall of the amazing 3D sound field space)
02. Hotel California (vocal effects)
03. I Can Rethist I can control (female jazz)
04. May It Be pledge (humbling beautiful female)
05. Walking In The Air (Children Teana)
06. Turned My Upside Down makes me uneasy (female rhythm and blues)
07. Merry Christmas Baby (Blues husky King)
08. This can be very happy (male R & B)
09. Hero dynamic Jiang Sheng Huang (3D surround effect)
10. Nocturne (Angels Sing)
11. Holding An Open Hand With love a way out (South American style)
12. Sir Roland Hanna (Jazz Quartet)
Доп. информация: Всего в коллекции Audiophile sound test 3 части, состоящих из нескольких дисков.
Audiophile sound test II B-side можно скачать здесь:
Audiophile sound test III A-side можно скачать здесь:
Audiophile sound test III B-side можно скачать здесь:
Все мои раздачи здесь:

Об альбоме (сборнике)

Этот сборник был создан китайскими организациями China Great Wall of Art и Culture Center of the total distribution для того, чтобы с его помощью слушатель смог протестировать свою музыкальную аппаратуру класса HI END. Каждая композиция сборника акцентирует внимание слушателя на определённых звуковых частотах и звучании системы, о чём можно узнать из дополнительных пометок в названиях треков. Оригинальный текст был написан на китайсом языке и переведён на английский с помощью Гугл-переводчика. Так как на русский язык названия песен он перевёл слишком фривольно и бессмысленно, оставил английские названия и комментарии в скобках. Китайцы обещают слушателю "звуковой праздник", правда, счастливые обладатели HI END аппаратуры вряд ли удовлетворятся FLAC-вариантом. Что ж, по крайней мере, песни в этом сборнике мелодичные и приятные уху.
Приятного прослушивания!

Audiochecker log

AUDIOCHECKER v2.0 beta (build 457) - by Dester - [email protected]
~~~~~~~~~~~~~~~~~~~~~~~~~~~~~~~~~~
-=== DO NOT EDIT THIS FILE! ===-
Путь: ...\Audiophile sound test II A-side
1 -=- Audiophile sound test II A-side.flac -=- CDDA (100%)
246973380

Sound Forge

Post 25-Sep-2018 12:30

[Quote]

Stockfisch Records - Closer To The Music Vol. 5
Жанр: Sampler/Audiophile
Носитель: CD
Год издания: 2015
Издатель (лейбл): Stockfisch Records
Номер по каталогу: SFR 357.4015.2
Аудиокодек: FLAC (*.flac)
Тип рипа: image+.cue
Битрейт аудио: lossless
Продолжительность: 79:25
Источник (релизер): Источник - losslessvietnam
Наличие сканов в содержимом раздачи: да
Треклист:
01. Allan Taylor / We Stood As One [0:05:36.60]
02. Steve Strauss / Acts Of War [0:03:59.17]
03. Steve Strauss / Monster EDIT [0:04:20.16]
04. Kerstin Blodig / Fause Fause [0:04:43.22]
05. The Greater Good / Rainbow's Gold [0:03:54.35]
06. David Roth / Will You Come Home [0:03:59.61]
07. David Roth / Nights At The Chez [0:05:03.48]
08. Don Ross / Simple Thought [0:03:29.06]
09. Brooke Miller / You Can See Everything [0:04:35.72]
10. Paul Stephenson / Windmill Sails [0:04:24.23]
11. Carl Cleves & Parissa Bouas / Four Extraordinary Days [0:04:26.22]
12. David Munyon / Bright To Brighter [0:04:56.26]
13. Carrie Newcomer / Sparrow [0:02:57.29]
14. Paul O'Brien / Silvia's River [0:03:59.06]
15. Ranagri / Strange World [0:03:14.18]
16. Ranagri feat. Tony Christie / Carrickfergus [0:04:29.67]
17. La Folia Barockorchester - L'inverno - Largo [0:01:55.30]
18. The Spirit of Gambo feat. Claron McFadden / The silver swan [0:03:43.57]
19. Song Zuying / A Riverside Town - Jiang Cheng Ji [0:05:39.13]

Лог создания рипа

Exact Audio Copy V1.0 beta 5 from 2. April 2015
EAC extraction logfile from 12. May 2015, 16:51
Various Artists / closer to the music Vol.5
Used drive : TSSTcorpCDDVDW SH-224DB Adapter: 1 ID: 0
Read mode : SecureUtilize accurate stream : YesDefeat audio cache : YesMake use of C2 pointers : No
Read offset correction : 6Overread into Lead-In and Lead-Out : NoFill up missing offset samples with silence : YesDelete leading and trailing silent blocks : NoNull samples used in CRC calculations : YesUsed interface : Native Win32 interface for Win NT & 2000
Used output format : Internal WAV RoutinesSample format : 44.100 Hz; 16 Bit; Stereo
TOC of the extracted CD
Track | Start | Length | Start sector | End sector --------------------------------------------------------- 1 | 0:00.00 | 5:36.60 | 0 | 25259 2 | 5:36.60 | 3:59.17 | 25260 | 43201 3 | 9:36.02 | 4:20.16 | 43202 | 62717 4 | 13:56.18 | 4:43.22 | 62718 | 83964 5 | 18:39.40 | 3:54.35 | 83965 | 101549 6 | 22:34.00 | 3:59.61 | 101550 | 119535 7 | 26:33.61 | 5:03.48 | 119536 | 142308 8 | 31:37.34 | 3:29.06 | 142309 | 157989 9 | 35:06.40 | 4:35.72 | 157990 | 178686 10 | 39:42.37 | 4:24.23 | 178687 | 198509 11 | 44:06.60 | 4:26.22 | 198510 | 218481 12 | 48:33.07 | 4:56.26 | 218482 | 240707 13 | 53:29.33 | 2:57.29 | 240708 | 254011 14 | 56:26.62 | 3:59.06 | 254012 | 271942 15 | 60:25.68 | 3:14.18 | 271943 | 286510 16 | 63:40.11 | 4:29.67 | 286511 | 306752 17 | 68:10.03 | 1:55.30 | 306753 | 315407 18 | 70:05.33 | 3:43.57 | 315408 | 332189 19 | 73:49.15 | 5:39.13 | 332190 | 357627
Range status and errors
Selected range
Filename F:\发烧唱片\Various Artists - closer to the music Vol.5\Various Artists - closer to the music Vol.5.wav
Peak level 94.4 % Extraction speed 3.1 X Range quality 100.0 % Copy CRC CCB50611 Copy OK
No errors occurred
End of status report
---- CUETools DB Plugin V2.1.6
[CTDB TOCID: iU85hOJpu6gr8Xnte0UQ9obCwH0-] foundSubmit result: iU85hOJpu6gr8Xnte0UQ9obCwH0- has been confirmedTrack | CTDB Status 1 | (4/4) Accurately ripped 2 | (4/4) Accurately ripped 3 | (4/4) Accurately ripped 4 | (4/4) Accurately ripped 5 | (4/4) Accurately ripped 6 | (4/4) Accurately ripped 7 | (4/4) Accurately ripped 8 | (4/4) Accurately ripped 9 | (4/4) Accurately ripped 10 | (4/4) Accurately ripped 11 | (4/4) Accurately ripped 12 | (4/4) Accurately ripped 13 | (4/4) Accurately ripped 14 | (4/4) Accurately ripped 15 | (4/4) Accurately ripped 16 | (4/4) Accurately ripped 17 | (4/4) Accurately ripped 18 | (4/4) Accurately ripped 19 | (4/4) Accurately ripped

Лог проверки качества

AUDIOCHECKER v2.0 beta (build 457) - by Dester - [email protected]~~~~~~~~~~~~~~~~~~~~~~~~~~~~~~~~~~-=== DO NOT EDIT THIS FILE! ===-
Path: ...\Stockfisch Records - Closer To The Music Vol. 5
1 -=- Various Artists - closer to the music Vol.5.flac -=- CDDA (99%)
114063780

Об альбоме (сборнике)

Closer to the music Vol.5
Just as it’s four predecessors did, the compilation „closer to the music Vol.5 “ provides an aural overview of the latest and the forthcoming Stockfisch productions - this time for 2015. More than 79 minutes of unusual recordings and fascinating music.
Starting off with introductions to the soon-to-be-released albums:
Closer To The Music Vol.4
The Norwegian singer/songwriter/guitarist KERSTIN BLODIG presents her debut-album on Stockfisch. The recordings took place in a clearing in one of Germany’s largest forest areas - in Solling. The rich natural atmosphere - including birdsong & sounds from the vegetation - fits wonderfully to Kerstin’s haunting Norwegian songs and soulful acoustic-guitar playing. We have already had the pleasure of experiencing guitar legend DON ROSS as accompanist for Brooke Miller in Northeim, and now he has played in his own solo-CD. This is virtuoso guitar music coupled with a warm voice, including a cover of Sting’s “If You Love Somebody”. Stockfisch is particularly proud and happy to welcome the famous American singer-songwriter CARRIE NEWCOMER to the fold. Her rich velvety voice and heartfelt songs captivate audiences world-wide. A further international star was in Northeim: TONY CHRISTIE - yes the Tony Christie! He came to the Stockfisch studios together with the musicians from RANAGRI to make an album of Irish songs. Tony has strong Irish roots and interprets the songs with his very individual voice supported by wonderful acoustic arrangements.
But recent productions also enrich the sampler „closer to the music Vol.5“:
Naturally ALLAN TAYLOR is of course represented with a song song of his last album “All Is One”; the New York songwriter STEVE STRAUSS presents his 3rd Stockfisch album and established popular label stars DAVID ROTH and PAUL STEPHENSON let us hear excerpts from their current albums.
A very special part of this compilation are tracks 17 to 19, not just because they come from the the so-called “classical music” genre, but also because of the sound-technical aspect - a true wealth of sonic treasures - which we wanted to present to you. The LA FOLIA BAROCKORCHESTER played in violin concertos - by Vivaldi and Brescianello. Each instrument was played by only a single player - “closer to the music” par excellence! With our friends from The SPIRIT of GAMBO we went to Haarlem (NL) and did the very first (!) recording ever of the complete “First Set of Madrigals and Mottets of 5. parts“ by Orlando Gibbons. Last and certainly not least we present a piece by China’s most famous female singer, SON ZUYING, whose album we recorded in Bejing. At the recent 57th Annual GRAMMY awards (2015) this SACD was nominated in the category “Best Surround Sound Album”.
[url=viewtopic.php?p=45074283#45074283]Релизы альбомов, записанных на Stockfisch Records,имеющиеся на трекере (lossless)[/url]

Sound Forge

Post 25-Sep-2018 12:30

[Quote]

Naxos World. World Sampler: delivering a world of music
Жанр: World Music
Носитель: CD
Страна-производитель диска: Канада
Год издания: 2004
Издатель (лейбл): Naxos World
Номер по каталогу: 76100-2
Аудиокодек: FLAC (*.flac)
Тип рипа: image+.cue
Битрейт аудио: lossless
Продолжительность: 01:11:46
Источник (релизер): собственный рип
Наличие сканов в содержимом раздачи: да
Треклист:
01. Anakhi - Lok Boliyan (5:28)
02. Wu Man - Dancing! (5:45)
03. Eddie Ansah Guitar Band - Mewu Mo Dzi (3:09)
04. Andre Toussaint - Little Nassau - Bahama Mama (3:45)
05. Yale Strom, Hot Pstromi & Klazzj - Birobidzhan (3:57)
06. Alessandra Belloni - Tarantella Infuocata (3:01)
07. Harmonious Wail - Swing Gitan (4:44)
08. Boris Grebenshikov - My Little Loom (Stanocheck) (3:27)
09. Alexandra Youth Choir - Nkosi Sikelela (4:57)
10. Dave Swarbrick - Mrs. Marriott (4:37)
11. Takillacta - Papel de Plata (4:08)
12. The Little Grasscals: Nashville's Superpickers - Nine Pound Hammer (3:00)
13. Alfredo Rodriguez y Los Acereko - Con el sabor de la tierra (4:44)
14. So' Forest - Shambada (3:55)
15. Golden Sounds Band - Bomba-Atomic (7:36)
16. Anakhi - Lok Boliyan (D&J Remix) (5:31)

Лог создания рипа

Exact Audio Copy V1.0 beta 4 from 7. December 2014
EAC extraction logfile from 4. July 2015, 21:05
Various Artists / Naxos World. World Sampler: delivering a world of music
Used drive : SlimtypeDVD A DS8A8SH Adapter: 1 ID: 0
Read mode : SecureUtilize accurate stream : YesDefeat audio cache : YesMake use of C2 pointers : No
Read offset correction : 6Overread into Lead-In and Lead-Out : NoFill up missing offset samples with silence : YesDelete leading and trailing silent blocks : NoNull samples used in CRC calculations : YesUsed interface : Native Win32 interface for Win NT & 2000
Used output format : User Defined EncoderSelected bitrate : 896 kBit/sQuality : HighAdd ID3 tag : NoCommand line compressor : C:\Program Files (x86)\Exact Audio Copy\FLAC\FLAC.EXEAdditional command line options : -V -8 -T "Date=%year%" -T "Genre=%genre%" %source%
TOC of the extracted CD
Track | Start | Length | Start sector | End sector --------------------------------------------------------- 1 | 0:00.00 | 5:27.45 | 0 | 24569 2 | 5:27.45 | 5:44.70 | 24570 | 50439 3 | 11:12.40 | 3:09.27 | 50440 | 64641 4 | 14:21.67 | 3:45.28 | 64642 | 81544 5 | 18:07.20 | 3:57.15 | 81545 | 99334 6 | 22:04.35 | 3:01.25 | 99335 | 112934 7 | 25:05.60 | 4:44.37 | 112935 | 134271 8 | 29:50.22 | 3:26.73 | 134272 | 149794 9 | 33:17.20 | 4:56.65 | 149795 | 172059 10 | 38:14.10 | 4:37.20 | 172060 | 192854 11 | 42:51.30 | 4:08.35 | 192855 | 211489 12 | 46:59.65 | 3:00.07 | 211490 | 224996 13 | 49:59.72 | 4:43.50 | 224997 | 246271 14 | 54:43.47 | 3:55.08 | 246272 | 263904 15 | 58:38.55 | 7:35.70 | 263905 | 298099 16 | 66:14.50 | 5:31.25 | 298100 | 322949
Range status and errors
Selected range
Filename D:\Аквариум и БГ\(2004) Various Artists - Naxos World. World Sampler - delivering a world of music [76100-2]\Various Artists - Naxos World. World Sampler - delivering a world of music.wav
Peak level 99.9 % Extraction speed 3.2 X Range quality 100.0 % Test CRC E62A9629 Copy CRC E62A9629 Copy OK
No errors occurred
AccurateRip summary
Track 1 accurately ripped (confidence 2) [EEEF2390] (AR v2)Track 2 accurately ripped (confidence 2) [E187B29F] (AR v2)Track 3 accurately ripped (confidence 2) [97B1C3DD] (AR v2)Track 4 accurately ripped (confidence 2) [B69EA137] (AR v2)Track 5 accurately ripped (confidence 2) [B7338C0A] (AR v2)Track 6 accurately ripped (confidence 2) [9D0773A3] (AR v2)Track 7 accurately ripped (confidence 2) [ED515214] (AR v2)Track 8 accurately ripped (confidence 2) [2EF3C6F5] (AR v2)Track 9 accurately ripped (confidence 2) [E3F7B068] (AR v2)Track 10 accurately ripped (confidence 2) [E7E80300] (AR v2)Track 11 accurately ripped (confidence 2) [8F6473D5] (AR v2)Track 12 accurately ripped (confidence 2) [DB3C328B] (AR v2)Track 13 accurately ripped (confidence 2) [7B53655F] (AR v2)Track 14 accurately ripped (confidence 2) [4B86B361] (AR v2)Track 15 accurately ripped (confidence 2) [771F2E8A] (AR v2)Track 16 accurately ripped (confidence 2) [08C9133B] (AR v2)
All tracks accurately ripped
End of status report
---- CUETools DB Plugin V2.1.4
[CTDB TOCID: FbNCxxDk7PtvoqRbcFeOBY9WtFc-] foundSubmit result: FbNCxxDk7PtvoqRbcFeOBY9WtFc- has been confirmedTrack | CTDB Status 1 | (1/1) Accurately ripped 2 | (1/1) Accurately ripped 3 | (1/1) Accurately ripped 4 | (1/1) Accurately ripped 5 | (1/1) Accurately ripped 6 | (1/1) Accurately ripped 7 | (1/1) Accurately ripped 8 | (1/1) Accurately ripped 9 | (1/1) Accurately ripped 10 | (1/1) Accurately ripped 11 | (1/1) Accurately ripped 12 | (1/1) Accurately ripped 13 | (1/1) Accurately ripped 14 | (1/1) Accurately ripped 15 | (1/1) Accurately ripped 16 | (1/1) Accurately ripped
==== Log checksum 1B56DD16E003A5F70FE3C7B7C9A6D97E53E91FF1057DBBF74D79B3A8A7C758F6 ====

О сборнике

Since 2002, Naxos World has been delivering authentic, entertaining and affordable world music to audiences all over the globe. For this, our first sampler, we have chosen some of the best songs from our favorite albums to give you a glimpse of what we’ve been up to. In addition to these great selections, we have also remixed a track from our best-selling Bhangra album exclusively for this sampler. Whether you are already a world music fan or someone who wants to check it out for the first time, this collection will give you an exciting survey of music from all over the world!

Sound Forge

Post 08-Aug-2018 19:31

[Quote]

Тюнинговый диск настройки ДК из журнала TotalDVD 10-2002 / Tuning Disс TotalDVD Samsung 10-2002
Год выпуска: 2002
Страна: Россия
Жанр: тестовый диск
Продолжительность: около 2-х часов
Перевод: Профессиональный (полное дублирование)
Русские субтитры: нет
Режиссер: неизвестно
В ролях: Очень много актеров из 16 отрывков известных фильмов
Описание: SAMSUNG И TOTAL DVD ПРЕДСТАВЛЯЮТ
ТЮНИНГОВЫЙ ДИСК ДЛЯ НАСТРОЙКИ ДОМАШНЕГО КИНОТЕАТРА
НАСТРОЙКА ИЗОБРАЖЕНИЯ
Яркость и контрастность
Цветность
Четкость
Формат изображений
НАСТРОЙКА ЗВУКА DOLBY DIGITAL И DTS
Установка театра
Розовый шум
Настройка синфазности
Настройка временных задержек
Настройка кроссовера
ДЕМОНСТРАЦИОННЫЕ ФРАГМЕНТЫ:
Атлантида
Ганнибал
Гладиатор
История игрушек 2
Мумия возвращается
Перл-Харбор
Последняя фантазия
Почти знаменит
Призрак дома на холме
Пятый элемент
Такси 2
Форсаж
Доп. информация: Скан диска прилагается к релизу.

Отчёт DVDinfo

Title: SAMSUNG_TUNING
Size: 3.73 Gb ( 3 911 028 KBytes ) - DVD-5
Enabled regions: 1, 2, 3, 4, 5, 6, 8
VTS_01 :
Play Length: 00:08:21
Video: PAL 16:9 (720x576) VBR, Auto Pan&Scan
Audio:
Russian (Dolby AC3, 6 ch)
VTS_02 :
Play Length: 00:04:55
Video: PAL 4:3 (720x576) VBR
Audio:
Russian (Dolby AC3, 6 ch)
English (Dolby AC3, 6 ch)
VTS_03 :
Play Length: 00:02:26
Video: PAL 16:9 (720x576) VBR, Auto Pan&Scan
Audio:
English (Dolby AC3, 6 ch)
English (Dolby AC3, 6 ch)
English (DTS, 6 ch)
VTS_04 :
Play Length: 00:05:34
Video: PAL 16:9 (720x576) VBR, Auto Pan&Scan
Audio:
Russian (Dolby AC3, 6 ch)
English (Dolby AC3, 6 ch)
VTS_05 :
Play Length: 00:07:41
Video: PAL 16:9 (720x576) VBR, Auto Pan&Scan
Audio:
Russian (Dolby AC3, 6 ch)
English (Dolby AC3, 6 ch)
VTS_06 :
Play Length: 00:06:13
Video: PAL 16:9 (720x576) VBR, Auto Pan&Scan
Audio:
Russian (Dolby AC3, 6 ch)
English (Dolby AC3, 6 ch)
VTS_07 :
Play Length: 00:05:16
Video: PAL 16:9 (720x576) VBR, Auto Pan&Scan
Audio:
Russian (Dolby AC3, 6 ch)
English (Dolby AC3, 6 ch)
VTS_08 :
Play Length: 00:03:16
Video: PAL 16:9 (720x576) VBR, Auto Pan&Scan
Audio:
Russian (Dolby AC3, 2 ch)
English (Dolby AC3, 6 ch)
VTS_09 :
Play Length: 00:04:41
Video: PAL 16:9 (720x576) VBR, Auto Pan&Scan
Audio:
Russian (Dolby AC3, 6 ch)
English (Dolby AC3, 6 ch)
VTS_10 :
Play Length: 00:05:44
Video: PAL 16:9 (720x576) VBR, Auto Pan&Scan
Audio:
Russian (Dolby AC3, 6 ch)
English (Dolby AC3, 6 ch)
VTS_11 :
Play Length: 00:05:36
Video: PAL 16:9 (720x576) VBR, Auto Pan&Scan
Audio:
Russian (Dolby AC3, 6 ch)
English (Dolby AC3, 6 ch)
Russian (DTS, 6 ch)
VTS_12 :
Play Length: 00:07:30
Video: PAL 16:9 (720x576) VBR, Auto Pan&Scan
Audio:
Russian (Dolby AC3, 6 ch)
Francais (Dolby AC3, 6 ch)
Russian (DTS, 6 ch)
VTS_13 :
Play Length: 00:01:57
Video: PAL 16:9 (352x576) VBR, Auto Pan&Scan
Audio:
Russian (Dolby AC3, 6 ch)
English (Dolby AC3, 6 ch)
English (DTS, 6 ch)
VTS_14 :
Play Length: 00:02:18
Video: PAL 4:3 (720x576) VBR
Audio:
Not specified (Dolby AC3, 2 ch)
VTS_15 :
Play Length: 00:03:00+00:01:36+00:01:50+00:00:48
Video: PAL 4:3 (720x576) VBR
Audio:
Not specified (Dolby AC3, 6 ch)
Not specified (DTS, 6 ch)
Subtitles:
Not specified
VTS_16 :
Play Length: 00:00:01
Video: PAL 16:9 (720x576) VBR, Auto Pan&Scan
Menu Video:
PAL 4:3 (720x576) VBR
Menu Audio:
Not specified (Dolby AC3, 2 ch)
Menu Subtitles:
Not specified
Menu Russian Language Unit :
Root Menu
Audio Menu
Angle menu
Выложено после запроса в топике
Качество: DVD5
Формат: DVD Video
Видео кодек: MPEG2
Аудио кодек: AC3
Видео: PAL 16:9 (720x576) VBR, Auto Pan&Scan, PAL 4:3 (720x576) VBR,
Аудио: Dolby AC3, 6 ch, DTS, 6 ch

Скриншоты

 

The time now is: Today 15:53

All times are GMT + 4 Hours